<?xml version="1.0" standalone="no"?>
<!DOCTYPE svg PUBLIC "-//W3C//DTD SVG 1.1//EN" "http://www.w3.org/Graphics/SVG/1.1/DTD/svg11.dtd">
<svg xmlns="http://www.w3.org/2000/svg">
<defs>
<font id="icofont" horiz-adv-x="1000" >
<font-face font-family="IcoFont" font-weight="400" font-style="Regular" units-per-em="1000" ascent="850" descent="-150" />
<missing-glyph horiz-adv-x="1000" />
<glyph glyph-name="access-levels" horiz-adv-x="1000" unicode="&#x13ab2;" d="M787 596c118 0 213-94 213-211 0-116-92-209-205-213l-8 0-44 0 0 13c0 38-20 73-52 93l-6 4 0 9c0 90-71 164-160 167l-7 0-37 0c-90 0-163-70-167-160l0-7 0-9c-33-17-56-51-58-90l0-7 0-13-76 0c-100 0-180 80-180 180 0 97 76 176 173 180l7 0 8 0 8-1 0 0 7-1 2 8c33 120 140 208 269 212l9 0 10 0c105-4 196-63 244-150l4-9 9 2c12 2 25 3 37 3z" />
<glyph glyph-name="access-levels" horiz-adv-x="1000" unicode="&#x13ab3;" d="M481 393l37 0c55 0 99-43 102-96l0-6 0-61 13 0c23 0 44-18 45-41l0-194c0-24-18-43-41-45l-4 0-267 0c-23 0-43 18-45 41l0 4 0 190c0 24 18 43 41 45l4 0 13 0 0 61c0 55 43 99 96 102l6 0 37 0-37 0z m18-236l-4 0c-18-2-32-17-32-35 0-14 7-25 18-31l3-2-14-58c-1-4 1-8 5-9l2 0 45 0c5 0 8 3 8 7l0 2-16 58c12 5 21 18 21 33 0 18-14 33-32 35l-4 0z m20 175l-37 0c-22 0-39-16-41-37l0-4 0-61 119 0 0 61c0 22-17 39-37 41l-4 0z" />
<glyph glyph-name="accessibility" horiz-adv-x="1000" unicode="&#x13ab4;" d="M433 804l5-1c7 0 14-2 20-5l5-2c0 0 263-153 263-153 14-9 22-22 26-37 5-19 2-41-11-58l-3-5-111-125 201 11 5 0 5 0c13-2 25-8 34-17 10-11 16-25 16-39l0-6-24-297c-3-28-25-50-52-52l-5 0-5 0 0 0c-30 2-53 27-53 57l0 5 19 231-77-4c19-39 30-83 30-130 0-74-28-141-73-193l-7-8-74 74c30 34 49 79 49 127 0 104-85 189-189 189-46 0-88-16-120-43l-7-6-74 74c39 37 88 63 142 74l11 2 143 162-81 47-97-87c-10-9-22-14-34-15l-5 0c-16 0-31 7-42 19-20 23-20 56 0 78l4 3 129 115c9 8 20 13 32 14l5 1z m333 46c53 0 96-43 96-96 0-51-40-93-91-96l-5 0c-54 0-97 43-97 96 0 53 43 96 97 96z" />
<glyph glyph-name="accessibility" horiz-adv-x="1000" unicode="&#x13ab5;" d="M196 358l75-75c-21-30-33-66-33-106 0-101 81-185 182-188l7-1 10 1c32 1 62 11 88 27l8 5 75-75c-50-39-113-62-181-62-162 0-294 131-294 293 0 65 21 124 56 172l7 9z" />
<glyph glyph-name="add-users" horiz-adv-x="1000" unicode="&#x13ab6;" d="M542 308c81 0 242-39 249-119l1-6 0-250c0-21-17-39-38-41l-4 0-417 0c-21 0-39 16-41 37l0 4 0 250c0 84 166 125 250 125z m-375 250c21 0 39-16 41-37l0-4 0-84 84 0c23 0 41-18 41-41 0-22-16-40-37-42l-4 0-84 0 0-83c0-22-16-40-37-42l-4 0c-22 0-40 17-42 37l0 5 0 83-83 0c-23 0-42 19-42 42 0 21 17 39 37 41l5 0 83 0 0 84c0 23 19 41 42 41z m375 84c69 0 124-56 124-125 0-67-52-122-118-125l-6 0c-69 0-125 56-125 125 0 69 56 125 125 125z" />
<glyph glyph-name="add-users" horiz-adv-x="1000" unicode="&#x13ab7;" d="M818 302c81-14 176-52 182-113l0-6 0-229c0-10-8-19-18-20l-3-1-106 0c1 5 1 9 2 14l0 7 0 229c0 50-23 88-57 119z m-68 340c69 0 125-56 125-125 0-67-52-122-118-125l-7 0c-13 0-26 2-38 6 23 34 38 74 38 119 0 44-14 85-38 119 12 4 25 6 38 6z" />
<glyph glyph-name="address" horiz-adv-x="1000" unicode="&#x13ab8;" d="M94 717l750 0c51 0 91-38 93-88l1-6 0-500c0-51-38-91-88-94l-6 0-750 0c-51 0-91 38-94 88l0 6 0 500c0 51 38 91 88 94l6 0 750 0-750 0z m250-344l-125 0c-51 0-91-38-94-88l0-6 0-94c0-17 11-29 27-31l4 0 250 0c18 0 30 11 31 28l1 3 0 94c0 51-38 91-88 94l-6 0z m344-94l-157 0c-18 0-31-12-31-31 0-17 11-29 27-31l4 0 157 0c18 0 31 12 31 31 0 17-11 29-28 31l-3 0z m93 125l-250 0c-18 0-31-12-31-31 0-17 11-29 27-31l4 0 250 0c19 0 32 12 32 31 0 17-11 29-28 31l-4 0z m-500 188l-6 0c-50-3-87-43-87-94 0-51 37-91 87-94l6 0 6 0c50 3 88 43 88 94 0 51-38 91-88 94l-6 0z" />
<glyph glyph-name="address" horiz-adv-x="1000" unicode="&#x13ab9;" d="M956 642c7-16 13-32 13-50l0-500c0-53-41-94-94-94l-750 0c-19 0-34 6-50 12 19-25 47-43 81-43l750 0c53 0 94 40 94 93l0 500c0 35-19 63-44 82z" />
<glyph glyph-name="angle-double-left" horiz-adv-x="1000" unicode="&#x13d02;" d="M778 750l4 0c15-1 28-11 34-24 6-12 5-26-1-38l-2-4-238-338c-5-7-5-15-2-22l2-3 238-339c9-12 10-29 2-43-7-14-21-22-37-22-12 0-24 5-31 14l-3 3-263 375c-10 14-10 31-3 45l3 3 263 375c8 11 21 18 34 18l0 0z" />
<glyph glyph-name="angle-double-left" horiz-adv-x="1000" unicode="&#x13d03;" d="M174 357l264 375c13 19 39 24 58 11 18-13 23-37 12-55l-2-4-238-338c-4-7-5-15-1-22l1-3 238-339c9-12 10-29 3-43-7-14-21-22-37-22-12 0-24 5-32 14l-2 3-264 375c-9 14-10 31-2 45l2 3 264 375-264-375z" />
<glyph glyph-name="angle-double-right" horiz-adv-x="1000" unicode="&#x13d0b;" d="M813 357l-264 375c-13 19-39 24-58 11-18-13-23-37-13-55l3-4 237-338c5-7 6-15 2-22l-2-3-237-339c-9-12-10-29-3-43 7-14 21-22 37-22 12 0 24 5 32 14l2 3 264 375c9 14 10 31 2 45l-2 3-264 375 264-375z" />
<glyph glyph-name="angle-double-right" horiz-adv-x="1000" unicode="&#x13d0c;" d="M209 750l-4 0c-15-1-28-11-34-24-6-12-5-26 1-38l2-4 238-338c5-7 5-15 2-22l-2-3-238-339c-9-12-10-29-3-43 8-14 22-22 38-22 12 0 23 5 31 14l3 3 263 375c9 14 10 31 3 45l-3 3-263 375c-8 11-21 18-34 18z" />
<glyph glyph-name="apply" horiz-adv-x="1000" unicode="&#x13aba;" d="M309 126l-28 242 311 311-463 0c-34 0-62-28-62-62l0-671c0-35 28-63 62-63l671 0c17 0 32 7 44 19 12 11 18 27 18 44l0 463-311-312-242 29z" />
<glyph glyph-name="apply" horiz-adv-x="1000" unicode="&#x13abb;" d="M807 783c15 0 30-6 41-17l102-101c11-11 17-26 17-42 0-15-6-30-17-41l-425-425-164 20-20 165 424 424c11 11 26 17 42 17z" />
<glyph glyph-name="archive" horiz-adv-x="1000" unicode="&#x13abc;" d="M876 449l0-508c0-15-6-29-16-39-10-10-22-15-35-17l-5 0-674 0c-30 0-54 23-56 52l0 4 0 508 786 0z m-333-113l-120 0c-33 0-60-27-60-60 0-32 24-57 55-60l5 0 120 0c33 0 60 27 60 60 0 32-25 57-55 60l-5 0z" />
<glyph glyph-name="archive" horiz-adv-x="1000" unicode="&#x13abd;" d="M876 817c29 0 53-23 56-52l0-5 0-225c0-30-22-54-51-56l-5 0-786 0c-15 0-30 6-40 17-9 9-15 21-16 34l-1 5 0 225c0 30 23 54 52 57l5 0 786 0z" />
<glyph glyph-name="arrow-first" horiz-adv-x="1000" unicode="&#x13abe;" d="M801 691l5 0c30-2 58-25 61-59l0-5 0-520c0-35-26-61-57-64l-5 0-4-1c-10 1-20 4-30 9l-5 3-368 260c-35 25-37 75-5 102l5 3 368 260c10 6 20 10 29 11l6 1z" />
<glyph glyph-name="arrow-first" horiz-adv-x="1000" unicode="&#x13abf;" d="M164 750c35 0 64-29 64-64l0-639c0-33-26-61-59-64l-5 0c-35 0-64 29-64 64l0 639c0 35 29 64 64 64z" />
<glyph glyph-name="arrow-last" horiz-adv-x="1000" unicode="&#x13ac0;" d="M166 657l4 0c9-1 17-3 25-8l6-3 369-261c34-24 35-74 4-101l-4-3-369-260c-10-7-20-10-31-11l-4-1c-32 0-63 24-66 59l0 5 0 520c0 39 32 65 66 64z" />
<glyph glyph-name="arrow-last" horiz-adv-x="1000" unicode="&#x13ac1;" d="M803 717l5 0c31-3 56-28 59-59l0-5 0-639c0-35-29-64-64-64-34 0-61 26-64 59l0 5 0 639c0 33 26 61 59 64l5 0z" />
<glyph glyph-name="articles" horiz-adv-x="1000" unicode="&#x13ac2;" d="M185 783l605 0c8 0 16-6 17-15l0-2 0-588-231 0c-9 0-16-6-18-15l0-2 0-232-373 0c-9 0-17 7-18 15l0 3 0 819c0 8 6 16 15 17l3 0 605 0-605 0z m533-462l-462 0c-10 0-18-8-18-18 0-9 6-16 15-18l3 0 462 0c10 0 18 8 18 18 0 9-6 16-15 18l-3 0z m0 142l-462 0c-10 0-18-8-18-18 0-9 6-16 15-17l3 0 462 0c10 0 18 7 18 17 0 9-6 16-15 18l-3 0z m0 142l-462 0c-10 0-18-8-18-17 0-9 6-17 15-18l3 0 462 0c10 0 18 8 18 18 0 8-6 16-15 17l-3 0z" />
<glyph glyph-name="articles" horiz-adv-x="1000" unicode="&#x13ac3;" d="M797 143l-203-204 0 204z" />
<glyph glyph-name="ascending" horiz-adv-x="1000" unicode="&#x13ac4;" d="M960 166c22 0 40-18 40-40 0-21-16-38-36-40l-4 0-371 0c-23 0-41 18-41 40 0 22 18 40 41 40l371 0z m-65 161c22 0 41-18 41-40 0-21-16-38-37-40l-4 0-306 0c-23 0-41 18-41 40 0 22 18 40 41 40l306 0z m-64 162c22 0 40-18 40-41 0-20-16-38-36-40l-4 0-242 0c-23 0-41 18-41 40 0 23 18 41 41 41l242 0z m-65 161c22 0 41-18 41-40 0-21-16-38-37-40l-4-1-177 0c-23 0-41 18-41 41 0 22 18 40 41 40l177 0z" />
<glyph glyph-name="ascending" horiz-adv-x="1000" unicode="&#x13ac5;" d="M58 289l105-106 0 435c0 18 14 32 32 32 18 0 32-14 32-32l0-435 106 106c13 13 34 13 47 0 14-14 14-35 0-48l-161-162c-5-5-11-8-18-9l-4-1-4 0c-8 1-16 4-22 10l-161 162c-13 13-13 34 0 48 7 7 17 10 26 9l4 0c6-1 13-4 18-9z" />
<glyph glyph-name="backward" horiz-adv-x="1000" unicode="&#x13ac6;" d="M880 617l4-1c25-2 47-23 47-51l0-419c0-28-22-49-47-51l-4-1c-10 0-21 3-31 10l-297 209c-29 21-29 64 0 84l297 210c10 7 21 10 31 10z" />
<glyph glyph-name="backward" horiz-adv-x="1000" unicode="&#x13ac7;" d="M417 617l4-1c24-2 46-23 46-51l0-419c0-28-22-49-46-51l-4-1c-11 0-22 3-31 10l-298 209c-28 21-28 64 0 84l298 210c8 6 17 9 26 9l5 1z" />
<glyph glyph-name="bar" horiz-adv-x="1000" unicode="&#x13ac8;" d="M275 467c32 0 58-27 58-59l0-291c0-32-26-59-58-59l-8 0c-32 0-59 27-59 59l0 291c0 32 27 59 59 59l8 0z m417-159c32 0 58-26 58-58l0-133c0-32-26-59-58-59-32 0-59 27-59 59l0 133c0 32 27 58 59 58z" />
<glyph glyph-name="bar" horiz-adv-x="1000" unicode="&#x13ac9;" d="M500 642c32 0 58-27 58-59l0-466c0-31-23-56-53-58l-5-1c-32 0-58 27-58 59l0 466c0 32 26 59 58 59z" />
<glyph glyph-name="batch" horiz-adv-x="1000" unicode="&#x13aca;" d="M704 221l89-71-280-224-280 224 89 71 191-153 191 153z m-191 529l280-224-280-224-280 224 280 224z" />
<glyph glyph-name="batch" horiz-adv-x="1000" unicode="&#x13acb;" d="M708 408l85-68-280-224-280 224 85 68 195-157z" />
<glyph glyph-name="book" horiz-adv-x="1000" unicode="&#x13acc;" d="M262 653l14 0c69-3 139-22 202-58l12-7 0-578 14 7c62 30 130 46 200 48l15 0 16 0c45-1 89-9 131-22l16-5 0 582 13-5c14-6 27-13 39-20l13-7 0-599c0-18-15-33-32-33-4 0-9 2-14 4-53 24-110 38-168 40l-14 0-14 0c-75-3-149-24-215-65-65 41-140 62-214 65l-14 0-15 0c-57-2-114-16-168-40-4-2-9-4-14-4-15 0-29 13-31 29l-1 4 0 599c66 41 141 62 215 65l14 0z" />
<glyph glyph-name="book" horiz-adv-x="1000" unicode="&#x13acd;" d="M817 783l0-456-261-196 0 457z" />
<glyph glyph-name="bookmark" horiz-adv-x="1000" unicode="&#x13ace;" d="M375 808l417 0c44 0 80-34 83-77l0-6 0-667-83 42 0 542c0 44-35 80-78 83l-6 0-416 0 0 6c3 41 36 74 77 77l6 0 417 0-417 0z" />
<glyph glyph-name="bookmark" horiz-adv-x="1000" unicode="&#x13acf;" d="M208 642l417 0c44 0 80-35 83-78l0-6 0-666-291 125-292-125 0 666c0 44 35 81 78 84l5 0 417 0-417 0z" />
<glyph glyph-name="briefcase-alt" horiz-adv-x="1000" unicode="&#x13ad0;" d="M500 725c90 0 163-71 167-159l0-8 166 0c44 0 81-34 84-77l0-6 0-125c0-44-35-80-78-83l-6 0-250 0 0 41c0 22-16 40-37 42l-4 0-84 0c-21 0-39-16-41-37l0-5 0-41-250 0c-45 0-81 34-83 78l-1 5 0 125c0 44 35 80 78 83l6 0 166 0c0 92 75 167 167 167z m0-83c-44 0-80-35-83-78l0-6 166 0c0 44-34 81-77 84l-6 0z" />
<glyph glyph-name="briefcase-alt" horiz-adv-x="1000" unicode="&#x13ad1;" d="M875 225l0-167c0-44-35-80-78-83l-5 0-583 0c-44 0-81 35-83 78l-1 5 0 167 292 0c0-21 16-39 37-41l4-1 84 0c21 0 39 17 41 38l0 4 292 0 0-167 0 167z" />
<glyph glyph-name="briefcase" horiz-adv-x="1000" unicode="&#x13ad2;" d="M427 717l163 0c45 0 79-32 81-76l0-6 0-41 164 0c43 0 78-34 81-76l0-5 0-245c0-43-34-79-76-82l-5 0-653 0c-43 0-79 34-82 76l0 6 0 245c0 43 34 78 76 81l6 0 163 0 0 41c0 45 32 79 76 82l6 0z m81-368c-24 0-41-16-41-40 0-25 17-41 41-41 25 0 41 16 41 41 0 24-16 40-41 40z m82 286l-163 0 0-41 163 0 0 41z" />
<glyph glyph-name="briefcase" horiz-adv-x="1000" unicode="&#x13ad3;" d="M916 227l0-163c0-43-34-79-76-82l-5 0-653 0c-43 0-79 34-82 76l0 6 0 163 0-5c3-41 36-74 76-76l6-1 653 0c43 0 78 34 81 77l0 5z" />
<glyph glyph-name="broadcast" horiz-adv-x="1000" unicode="&#x13ad4;" d="M257 370c144 104 339 104 483 0 27-19 30-58 9-84l-4-4c-21-20-53-22-77-5-101 72-238 72-340 0-23-17-55-15-76 5-25 25-24 68 5 88z m-169 167c239 195 583 195 821 0 27-22 29-62 4-87-21-21-55-23-79-4-195 160-477 160-672 0-23-19-57-17-78 4-25 25-23 66 4 87z" />
<glyph glyph-name="broadcast" horiz-adv-x="1000" unicode="&#x13ad5;" d="M416 193c52 26 112 26 163 0 24-12 29-43 13-63l-3-3-61-62c-7-6-15-10-23-11l-5-1-4 0c-8 1-17 4-24 9l-3 3-61 62c-20 19-15 53 8 66z" />
<glyph glyph-name="brush" horiz-adv-x="1000" unicode="&#x13ad6;" d="M834 475l38-37c25-26 24-53 1-79l-4-3-167-167c-12-12-24-19-37-21l-4 0-4 0c-11 1-22 5-33 14l-4 5-233 233c-26 26-26 51-4 79l11 13c72 91 70 173 107 219 10 13 23 19 37 19l4 0c10-1 21-5 30-13l4-4 181-181c-5-54-45-107-79-146l-6-7-11-11c-3-4-5-9-1-13 2-2 4-3 7-3l3 0c28 3 99 51 142 85l12 10 10 8 38-37-38 37z" />
<glyph glyph-name="brush" horiz-adv-x="1000" unicode="&#x13ad7;" d="M294 432l4 0c12-2 24-7 35-17l4-4 284-284c26-27 28-57 5-83l-4-4-28-28c-12-12-25-19-39-20l-4 0c-13 0-27 6-40 17l-4 4-89 89c-21-41-48-112-79-143-22-22-47-34-73-35l-6 0c-29-1-60 13-87 39-51 51-53 117-4 166 30 29 94 54 135 74l8 4-88 90c-27 27-28 57-5 82l3 4 28 29c14 13 29 20 44 20z m-42-360l-4 0c-6-1-12-4-17-9-11-12-12-29 0-41 6-6 14-9 21-9l4 0c6 1 12 4 17 9 11 12 11 29 0 41-5 5-11 8-17 9l-4 0 0 0z" />
<glyph glyph-name="bug" horiz-adv-x="1000" unicode="&#x13ad8;" d="M89 645c18 18 45 19 65 5l3-4 109-108 449 0 109 108c9 9 22 14 34 14l5-1c10-1 21-6 29-14 17-17 19-45 4-64l-3-4-109-108 0-127 147 0c27 0 49-22 49-49 0-25-19-46-44-49l-5 0-147 0c0-37-7-73-21-108l4-2 0 0 3-2 139-139c18-19 17-49-2-68-8-8-18-13-29-14l-4-1c-11 0-22 3-30 10l-5 4-127 127-8-8c-41-44-95-74-154-87l-11-2 0 486-98 0 0-486c-63 11-121 42-165 89l-7 8-128-127c-8-8-19-12-30-13l-4 0c-12 0-25 5-34 14-18 18-19 45-4 64l3 4 139 139c2 2 4 3 6 4-12 31-19 63-21 96l0 12-147 0-5 1c-25 2-44 23-44 48 0 26 19 47 44 49l5 0 147 0 0 127-108 108c-18 19-17 50 1 68z" />
<glyph glyph-name="bug" horiz-adv-x="1000" unicode="&#x13ad9;" d="M490 783c106 0 192-83 196-188l0-8-392 0c0 106 84 192 189 196l7 0 0 0z" />
<glyph glyph-name="calendar" horiz-adv-x="1000" unicode="&#x13ada;" d="M287 180c15 0 21-4 22-18l0-3 0-27c0-15-5-20-18-21l-4 0-26 0c-15 0-21 4-22 17l0 4 0 27c0 15 5 20 18 21l4 0 26 0z m122 0l27 0c15 0 21-4 22-18l0-3 0-27c0-15-5-20-18-21l-4 0-27 0c-15 0-21 4-21 17l-1 4 0 27c0 15 5 20 19 21l3 0 27 0z m176 0c16 0 22-5 22-21l0-27c0-16-6-21-22-21l-27 0c-16 0-21 5-21 21l0 27c0 16 5 21 21 21l27 0z m-298 146c15 0 21-4 22-17l0-4 0-27c0-15-5-20-18-21l-4 0-26 0c-15 0-21 4-22 18l0 3 0 27c0 15 5 20 18 21l4 0 26 0z m149 0c15 0 21-4 22-17l0-4 0-27c0-15-5-20-18-21l-4 0-27 0c-15 0-21 4-21 18l-1 3 0 27c0 15 5 20 19 21l3 0 27 0z m149 0c15 0 21-4 22-17l0-4 0-27c0-15-5-20-18-21l-4 0-27 0c-15 0-21 4-21 18l0 3 0 27c0 15 4 20 18 21l3 0 27 0z m149 0c15 0 21-4 22-17l0-4 0-27c0-15-5-20-19-21l-3 0-27 0c-15 0-21 4-21 18l0 3 0 27c0 15 4 20 17 21l4 0 27 0z m-298 147c15 0 21-4 22-18l0-3 0-27c0-15-5-20-18-21l-4 0-27 0c-15 0-21 4-21 17l-1 4 0 27c0 15 5 20 19 21l3 0 27 0z m149 0c15 0 21-4 22-18l0-3 0-27c0-15-5-20-18-21l-4 0-27 0c-15 0-21 4-21 17l0 4 0 27c0 15 4 20 18 21l3 0 27 0z m149 0c15 0 21-4 22-18l0-3 0-27c0-15-5-20-19-21l-3 0-27 0c-15 0-21 4-21 17l0 4 0 27c0 15 4 20 17 21l4 0 27 0z" />
<glyph glyph-name="calendar" horiz-adv-x="1000" unicode="&#x13adb;" d="M811 783c99 0 150-51 150-148l0 0 0-555c0-97-51-148-150-148l0 0-628 0c-98 0-150 51-150 148l0 0 0 555c0 98 52 148 150 148l0 0z m0-222l-628 0c-38 0-59-20-59-60l0 0 0-419c0-40 21-60 59-60l0 0 628 0c38 0 59 20 59 60l0 0 0 419c0 40-21 60-59 60l0 0z" />
<glyph glyph-name="camera" horiz-adv-x="1000" unicode="&#x13adc;" d="M500 475l7 0c66-4 118-58 118-125 0-69-56-125-125-125-69 0-125 56-125 125 0 67 52 121 118 125l7 0z" />
<glyph glyph-name="camera" horiz-adv-x="1000" unicode="&#x13add;" d="M833 683l-132 0-51 57c-16 17-38 27-62 27l-176 0c-24 0-46-10-62-27l-51-57-132 0c-46 0-84-37-84-83l0-500c0-46 38-83 84-83l666 0c46 0 84 37 84 83l0 500c0 46-38 83-84 83z m-333-541c-115 0-208 93-208 208 0 115 93 208 208 208 115 0 208-93 208-208 0-115-93-208-208-208z" />
<glyph glyph-name="cart" horiz-adv-x="1000" unicode="&#x13ade;" d="M993 634c-7 13-21 22-35 22l-702 32-25 95c-5 20-22 34-43 34l-144 0c-24 0-44-20-44-45 0-24 20-44 44-44l109 0 123-476-30-124c-4-14 0-28 7-38 9-11 21-17 35-17l544 0c25 0 45 20 45 45 0 24-20 44-45 44l-486 0 12 51 444 21c17 2 31 12 38 26l156 333c6 13 5 28-3 41z" />
<glyph glyph-name="cart" horiz-adv-x="1000" unicode="&#x13adf;" d="M317 50c46 0 83-37 83-83 0-46-37-84-83-84-46 0-84 38-84 84 0 46 38 83 84 83z m500 0c46 0 83-37 83-83 0-46-37-84-83-84-46 0-84 38-84 84 0 46 38 83 84 83z" />
<glyph glyph-name="category" horiz-adv-x="1000" unicode="&#x13ae0;" d="M167-46l250 0c23 0 41 19 41 42l0 250c0 23-18 42-41 42l-250 0c-23 0-42-19-42-42l0-250c0-23 19-42 42-42z" />
<glyph glyph-name="category" horiz-adv-x="1000" unicode="&#x13ae1;" d="M465 708l-155-253c-17-27 3-63 35-63l310 0c32 0 52 36 35 63l-155 253c-16 27-54 27-70 0z m77-587c0 103 84 187 187 187 104 0 188-84 188-187 0-104-84-188-188-188-103 0-187 84-187 188z" />
<glyph glyph-name="chart" horiz-adv-x="1000" unicode="&#x13ae2;" d="M792 17c0-32-27-59-59-59l-466 0c-32 0-59 27-59 59 0 32 27 58 59 58l466 0c32 0 59-26 59-58z" />
<glyph glyph-name="chart" horiz-adv-x="1000" unicode="&#x13ae3;" d="M275 550c32 0 58-26 58-58l0-292c0-32-26-58-58-58l-8 0c-32 0-59 26-59 58l0 292c0 32 27 58 59 58l8 0z m225 175c32 0 58-26 58-58l0-467c0-32-26-58-58-58-32 0-58 26-58 58l0 467c0 32 26 58 58 58z m233-333c32 0 59-27 59-59l0-133c0-32-27-58-59-58-32 0-58 26-58 58l0 133c0 32 26 59 58 59z" />
<glyph glyph-name="checkedout" horiz-adv-x="1000" unicode="&#x13ae4;" d="M818 360c30 0 55-25 55-55l0-399c0-15-6-29-16-40-10-10-25-16-39-16l-621 0c-15 0-29 6-40 16-10 11-16 25-16 40l0 399c0 30 25 55 56 55l621 0z m-189-125c-9 0-17-3-23-9l-139-140c-3-3-6-4-10-4-3 0-6 1-9 4l-37 37c-7 6-15 9-23 9-9 0-17-3-23-9l-17-17c-13-13-13-33 0-46l87-87c12-12 32-12 45 0l189 190c6 6 9 14 9 23 0 8-3 16-9 22l-18 18c-6 6-14 9-22 9z" />
<glyph glyph-name="checkedout" horiz-adv-x="1000" unicode="&#x13ae5;" d="M357 426c0-9-7-16-16-16l-71 0c-9 0-17 7-17 16l0 157c-2 93 47 180 127 227 80 47 180 47 260 0 80-47 129-134 127-227l0-157c0-9-7-16-16-16l-72 0c-9 0-16 7-16 16l0 156c2 56-27 108-75 136-48 29-107 29-155 1-48-28-77-80-76-136l0-157z" />
<glyph glyph-name="click" horiz-adv-x="1000" unicode="&#x13ae6;" d="M409 511l527-310c26-16 16-55-13-58l-264-43-130-234c-13-23-52-20-55 9l-114 603c-4 26 26 46 49 33z" />
<glyph glyph-name="click" horiz-adv-x="1000" unicode="&#x13ae7;" d="M262 400l-137-94c-25-19-53 19-32 37l140 99c26 17 55-22 29-42z m-199 189l163-29c31-4 24-49-3-47l-170 27c-32 7-22 55 10 49z m587 85l-134-98c-29-16-55 23-29 42l137 95c26 19 55-23 26-39z m-442 116l100-139c16-26-23-56-43-30l-94 137c-19 25 20 54 37 32z m246 30l-29-163c-7-32-52-22-49 7l29 166c7 33 56 23 49-10z" />
<glyph glyph-name="cogs" horiz-adv-x="1000" unicode="&#x13ae8;" d="M637 608c21 0 39-15 42-35l10-56c24-6 47-16 69-29l47 33c17 12 40 10 54-5l34-33c15-15 17-38 5-55l-33-47c13-21 22-45 29-69l56-10c20-4 35-21 35-42l0-47c0-20-15-38-35-42l-56-10c-7-24-16-47-29-69l33-46c12-17 10-41-5-56l-33-33c-15-15-38-17-55-5l-47 33c-22-13-45-22-70-29l-10-56c-3-20-21-35-42-35l-46 0c-21 0-39 15-42 35l-11 56c-24 7-47 16-69 29l-46-33c-17-12-40-10-55 5l-33 33c-15 15-17 38-5 56l33 46c-13 22-23 45-29 70l-56 10c-20 3-35 21-35 42l0 46c0 21 15 39 35 42l56 11c6 24 16 47 29 69l-33 46c-12 17-10 40 5 55l33 33c15 15 38 17 55 5l47-33c21 13 45 23 69 29l10 56c4 20 21 35 42 35l47 0z m-24-244c-70 0-127-57-127-127 0-71 57-128 127-128 71 0 128 57 128 128 0 70-57 127-128 127z" />
<glyph glyph-name="cogs" horiz-adv-x="1000" unicode="&#x13ae9;" d="M28 506c-16 2-28 16-28 33l0 37c0 16 12 30 28 33l44 8c5 19 13 37 23 54l-26 37c-10 13-8 32 4 43l26 27c11 11 30 13 43 3l37-25c17 9 35 17 54 22l8 44c3 16 17 28 33 28l37 0c17 0 31-12 34-28l7-44c19-5 38-13 55-22l36 25c14 10 32 8 43-4l27-26c11-11 13-30 4-43l-26-37c8-13 14-27 18-41-11-14-18-30-21-47l-3-20-11-5-17 12c-18 12-38 19-60 19-3 0-6-1-10-1-14 45-58 74-105 69-48-4-85-42-90-89-5-47 24-91 70-106-3-24 4-49 18-69l12-17c-2-3-3-7-5-11l-20-3c-17-3-33-10-47-21-14 4-28 10-41 18l-37-26c-13-9-32-7-43 4l-26 27c-12 11-14 29-4 43l26 36c-10 17-18 36-23 55l-44 8z" />
<glyph glyph-name="comment" horiz-adv-x="1000" unicode="&#x13aea;" d="M708 392l0 291c0 46-37 84-83 84l-458 0c-46 0-84-38-84-84l0-541 167 166 375 0c46 0 83 38 83 84z" />
<glyph glyph-name="comment" horiz-adv-x="1000" unicode="&#x13aeb;" d="M833 600l-41 0 0-333c0-23-19-42-42-42l-500 0 0-42c0-45 38-83 83-83l417 0 167-167 0 584c0 46-38 83-84 83z" />
<glyph glyph-name="compass" horiz-adv-x="1000" unicode="&#x13aec;" d="M500 773c233 0 423-190 423-423 0-233-190-423-423-423-233 0-423 190-423 423 0 233 190 423 423 423m0 77c-276 0-500-224-500-500 0-276 224-500 500-500 276 0 500 224 500 500 0 276-224 500-500 500l0 0z" />
<glyph glyph-name="compass" horiz-adv-x="1000" unicode="&#x13aed;" d="M745 595l-136-354-354-136 136 354 354 136z m-191-191c-30 30-78 30-108 0-30-30-30-78 0-108 30-30 78-30 108 0 30 30 30 78 0 108z" />
<glyph glyph-name="components" horiz-adv-x="1000" unicode="&#x13aee;" d="M863 253l129-67c11-6 11-15 0-21l0 0-472-244c-11-6-29-6-40 0l0 0-472 244c-11 6-11 15 0 21l0 0 129 67 340-176c13-6 33-6 46 0l0 0 340 176z m0 197l129-67c11-6 11-15 0-21l0 0-472-244c-11-6-29-6-40 0l0 0-472 244c-11 6-11 15 0 21l0 0 129 67 340-176c13-7 33-7 46 0l0 0 340 176z" />
<glyph glyph-name="components" horiz-adv-x="1000" unicode="&#x13aef;" d="M8 557l472-236c11-6 29-6 40 0l472 236c11 5 11 14 0 20l-472 236c-11 5-29 5-40 0l-472-236c-11-6-11-15 0-20z" />
<glyph glyph-name="contacts-alt" horiz-adv-x="1000" unicode="&#x13af0;" d="M320 750l483 0c37 0 67-28 69-64l1-5 0-712c0-36-29-66-65-69l-5 0-483 0 0 850 483 0-483 0z m197-279l-16-9 1 0c-6-5-11-10-16-16-4-5-7-11-9-17-19-47-9-98 35-174 61-106 130-118 133-118 6-1 13-1 20 0 7 1 14 2 21 5l0 0 16 9c11 7 16 21 9 32l-32 57c-7 11-22 15-33 8l-28-16-12 11c-11 11-24 25-36 46-11 20-17 39-21 54l-4 15 0 0 28 16c12 7 16 22 9 33l-32 56c-6 11-21 15-33 8z" />
<glyph glyph-name="contacts-alt" horiz-adv-x="1000" unicode="&#x13af1;" d="M150 681l0-712c0-38 34-69 77-69l51 0 0 850-51 0c-43 0-77-31-77-69z" />
<glyph glyph-name="contacts" horiz-adv-x="1000" unicode="&#x13af2;" d="M167 683l666 0c44 0 81-34 84-77l0-6 0-500c0-44-35-80-78-83l-6 0-666 0c-44 0-81 34-83 78l-1 5 0 500c0 44 35 80 78 83l6 0z m333-375c-68 0-201-32-208-98l0-6 0-62 416 0 0 62c0 70-138 104-208 104z m0 261c-52 0-94-42-94-94 0-52 42-94 94-94 52 0 94 42 94 94 0 52-42 94-94 94z" />
<glyph glyph-name="contacts" horiz-adv-x="1000" unicode="&#x13af3;" d="M208-67l584 0c23 0 41-18 41-41 0-22-16-40-37-42l-4 0-584 0c-23 0-41 19-41 42 0 21 16 39 37 41l4 0 584 0-584 0z m0 917l584 0c23 0 41-19 41-42 0-21-16-39-37-41l-4 0-584 0c-23 0-41 18-41 41 0 22 16 40 37 42l4 0 584 0-584 0z" />
<glyph glyph-name="content-scalling" horiz-adv-x="1000" unicode="&#x13af4;" d="M358 154c-11 0-23 5-31 13 0 0 0 0 0 0-17 18-17 46 0 63l333 340-623 0c-18 0-31-15-31-32l0-646c0-19 14-33 31-33l647 0c18 0 32 15 32 33l0 611-327-336c-9-8-20-13-31-13z" />
<glyph glyph-name="content-scalling" horiz-adv-x="1000" unicode="&#x13af5;" d="M988-84c2 0 5-2 6-5l0-2 0-45c0-3-2-6-5-7l-1 0-46 0c-3 0-6 2-6 5l-1 2 0 25c0 3 3 6 5 7l2 0 6 0c3 0 5 3 6 6l1 1 0 6c0 3 2 6 5 7l1 0 27 0z m-144-20c3 0 6-2 7-5l0-2 0-25c0-3-2-6-5-7l-2 0-59 0c-3 0-5 2-6 5l-1 2 0 25c0 3 3 6 6 7l1 0 59 0z m142 177c3 0 6-2 7-5l0-2 0-58c0-3-2-6-5-7l-2 0-25 0c-2 0-5 3-6 5l0 2 0 58c0 3 2 6 5 7l1 0 25 0z m0 156c3 0 6-2 7-5l0-2 0-58c0-3-2-6-5-7l-2 0-25 0c-2 0-5 2-6 5l0 2 0 58c0 3 2 6 5 7l1 0 25 0z m-292 468l193 53c6 3 11-2 12-7l-1-2-52-198c-1-7-8-9-13-6l-1 1-54 54-402-412c-10-10-26-10-36 0-9 10-10 24-3 34l3 3 402 411-52 54c-4 4-3 11 2 14l2 1 193 53-193-53z m292-311c3 0 6-2 7-5l0-2 0-58c0-3-2-6-5-7l-2 0-25 0c-2 0-5 2-6 5l0 2 0 58c0 3 2 6 5 7l1 0 25 0z m0 157c3 0 6-2 7-5l0-2 0-58c0-3-2-6-5-7l-2 0-25 0c-2 0-5 2-6 5l0 2 0 58c0 3 2 6 5 7l1 0 25 0z m-947 156c3 0 5-3 6-5l1-2 0-58c0-3-3-6-6-7l-1 0-26 0c-3 0-6 2-7 5l0 2 0 58c0 3 2 6 5 7l2 0 26 0z m922 0l25 0c3 0 6-3 7-5l0-2 0-58c0-3-2-6-5-7l-2 0-25 0c-2 0-5 2-6 5l0 2 0 58c0 3 2 6 5 7l1 0z m-903 144c3 0 6-2 7-5l0-2 0-25c0-3-3-6-5-7l-2 0-6 0c-3 0-5-3-6-6l0-1 0-6c0-3-3-6-6-7l-1 0-26 0c-3 0-6 2-7 5l0 2 0 45c0 3 2 6 5 7l2 0 45 0z m930 0c2 0 5-2 6-5l0-2 0-45c0-3-2-6-5-7l-1 0-27 0c-2 0-5 2-6 5l0 2 0 6c0 2-3 5-6 6l-1 1-6 0c-3 0-6 2-6 5l-1 2 0 25c0 3 3 6 5 7l2 0 46 0z m-302 0c3 0 6-2 7-5l0-2 0-25c0-3-2-6-5-7l-2 0-59 0c-3 0-5 2-6 5l0 2 0 25c0 3 2 6 5 7l1 0 59 0z m-471 0c3 0 6-2 6-5l1-2 0-25c0-3-3-6-5-7l-2 0-59 0c-3 0-6 2-7 5l0 2 0 25c0 3 2 6 5 7l2 0 59 0z m315 0c2 0 5-2 6-5l0-2 0-25c0-3-2-6-5-7l-1 0-59 0c-3 0-6 2-7 5l0 2 0 25c0 3 2 6 5 7l2 0 59 0z m-157 0c3 0 5-2 6-5l1-2 0-25c0-3-3-6-6-7l-1 0-59 0c-3 0-6 2-7 5l0 2 0 25c0 3 2 6 5 7l2 0 59 0z m471 0c3 0 6-2 7-5l0-2 0-25c0-3-2-6-5-7l-2 0-59 0c-3 0-5 2-6 5l-1 2 0 25c0 3 3 6 6 7l1 0 59 0z" />
<glyph glyph-name="content" horiz-adv-x="1000" unicode="&#x13af6;" d="M976 633l0-724c0-27-23-48-51-48l-538 0 0 820 538 0c28 0 51-21 51-48z m-77-676c0 13-12 24-26 24l-384 0c-14 0-25-11-25-24 0-13 11-24 25-24l384 0c14 0 26 11 26 24z m0 121c0 13-12 24-26 24l-384 0c-14 0-25-11-25-24 0-13 11-24 25-24l384 0c14 0 26 11 26 24z m0 121c0 13-12 24-26 24l-384 0c-14 0-25-11-25-24 0-14 11-25 25-25l384 0c14 0 26 11 26 25z m0 386c0 13-12 24-26 24l-384 0c-14 0-25-11-25-24l0-266c0-13 11-24 25-24l384 0c14 0 26 11 26 24l0 266z m-384-242l333 0 0 217-333 0 0-217z" />
<glyph glyph-name="content" horiz-adv-x="1000" unicode="&#x13af7;" d="M583 850l-234-124c-1 0-1 0-1 0-1-1-2-1-2-2-1 0-2-1-2-1-1-1-1-1-2-2-1 0-1-1-2-2l0 0-1-2c0 0-1-1-1-2 0 0-1-1-1-2l0 0-1-2c0-1 0-2 0-2 0-1 0-2 0-3 0 0 0 0 0-1l0 0 0-675-218 0c-28 0-51 21-51 48l0 0 0 724c0 26 23 48 51 48l0 0 465 0z m73-17l0-104-197 0 197 104z" />
<glyph glyph-name="contract-alt" horiz-adv-x="1000" unicode="&#x13af8;" d="M832 503l-60 61 91 90c16 16 16 43 0 59-16 16-43 16-59 0l-90-91-61 60c-13 13-35 4-35-15l0-178c0-12 9-21 21-21l178 0c19 0 28 22 15 35l0 0z m-664-306l60-61-91-90c-16-16-16-43 0-59 16-16 43-16 59 0l90 91 61-60c13-13 35-4 35 15l0 178c0 12-9 21-21 21l-178 0c-19 0-28-22-15-35z" />
<glyph glyph-name="contract-alt" horiz-adv-x="1000" unicode="&#x13af9;" d="M347 682l-61-60-90 91c-16 16-42 16-59 0-16-16-16-43 0-59l91-90-60-61c-13-13-4-35 15-35l178 0c12 0 21 9 21 21l0 178c0 19-22 28-35 15l0 0z m306-664l61 60 90-91c16-16 43-16 59 0 16 17 16 43 0 59l-91 90 60 61c13 13 4 35-15 35l-178 0c-12 0-21-9-21-21l0-178c0-19 22-28 35-15l0 0z" />
<glyph glyph-name="credit" horiz-adv-x="1000" unicode="&#x13afa;" d="M1000 449l0-322c0-94-50-146-142-149l-9-1-698 0c-95 0-147 49-151 141l0 9 0 322 1000 0z m-695-95l-108 0c-25 0-41-15-44-37l0-5 0-82c0-23 15-40 38-42l6 0 108 0c24 0 41 15 43 37l0 5 0 82c0 25-17 42-43 42z m-154 396l698 0c95 0 147-49 151-140l0-10 0-45-1000 0 0 45c0 95 49 147 141 150l10 0 698 0-698 0z" />
<glyph glyph-name="credit" horiz-adv-x="1000" unicode="&#x13afb;" d="M1000 449l0-322c0-94-50-146-142-149l-9-1-698 0c-95 0-147 49-151 141l0 9 0 322 1000 0z m-695-95l-108 0c-25 0-41-15-44-37l0-5 0-82c0-23 15-40 38-42l6 0 108 0c24 0 41 15 43 37l0 5 0 82c0 25-17 42-43 42z m-154 396l698 0c95 0 147-49 151-140l0-10 0-45-1000 0 0 45c0 95 49 147 141 150l10 0 698 0-698 0z" />
<glyph glyph-name="cube" horiz-adv-x="1000" unicode="&#x13afc;" d="M960 569c1-8 2-16 2-26l0-368c0-63-22-90-67-116l-346-191c-5-3-11-6-16-6l0 469 427 238z m-462 281c26 0 52-6 78-19l10-5 319-177c7-4 13-8 18-13l6-5-431-238-431 238c6 7 14 12 22 17l7 4 314 174c29 16 58 24 88 24z" />
<glyph glyph-name="cube" horiz-adv-x="1000" unicode="&#x13afd;" d="M463-138l0 469-427 238c-2-8-3-16-3-26l0-368c0-63 22-90 68-116l345-191c6-3 11-6 17-6z" />
<glyph glyph-name="dark-mode" horiz-adv-x="1000" unicode="&#x13afe;" d="M475 850c260 0 476-215 476-476 0-260-215-475-476-475-260 0-475 215-475 475 0 261 215 476 475 476z m0-95c-211 0-379-170-379-381 0-210 168-380 379-380 211 0 381 170 381 380-1 211-170 381-381 381z m126-476c30 0 60 6 78 13 6 2 10 2 14 2 8 0 15-6 15-16 0-2 0-9-3-15-34-82-125-146-230-146-145 0-256 104-256 250 0 103 62 201 154 238 6 2 12 3 16 3 9 0 15-8 15-15 0-3 0-6-2-10l-1-4c-8-21-16-58-16-87 0-131 84-213 216-213z" />
<glyph glyph-name="dark-mode" horiz-adv-x="1000" unicode="&#x13aff;" d="M475 850c260 0 476-215 476-476 0-260-215-475-476-475-260 0-475 215-475 475 0 261 215 476 475 476z m0-95c-211 0-379-170-379-381 0-210 168-380 379-380 211 0 381 170 381 380-1 211-170 381-381 381z m126-476c30 0 60 6 78 13 6 2 10 2 14 2 8 0 15-6 15-16 0-2 0-9-3-15-34-82-125-146-230-146-145 0-256 104-256 250 0 103 62 201 154 238 6 2 12 3 16 3 9 0 15-8 15-15 0-3 0-6-2-10l-1-4c-8-21-16-58-16-87 0-131 84-213 216-213z" />
<glyph glyph-name="dashboard" horiz-adv-x="1000" unicode="&#x13b00;" d="M500 850c-276 0-500-224-500-500 0-276 224-500 500-500 276 0 500 224 500 500 0 276-224 500-500 500z m69-525l5-78c29-22 48-57 48-97 0-67-54-122-122-122-67 0-122 55-122 122 0 40 19 75 48 97l6 77c-183-17-302-99-346-135-20 50-30 104-30 161 0 246 199 444 444 444 246 0 444-198 444-444 0-54-9-106-27-153-41 32-162 111-348 128z" />
<glyph glyph-name="dashboard" horiz-adv-x="1000" unicode="&#x13b01;" d="M544 214c-15 298-29 447-44 447-14 0-29-149-44-447-20-14-34-37-34-64 0-43 35-78 78-78 43 0 78 35 78 78 0 27-14 50-34 64z" />
<glyph glyph-name="database" horiz-adv-x="1000" unicode="&#x13b02;" d="M500 850c-276 0-500-45-500-100l0-200c0-55 224-100 500-100 276 0 500 45 500 100l0 200c0 55-224 100-500 100z" />
<glyph glyph-name="database" horiz-adv-x="1000" unicode="&#x13b03;" d="M0-50l0 200c0-54 217-99 487-100l13 0c272 0 493 43 500 97l0 3 0-200c0-53-203-96-460-100l-40 0-27 0c-259 3-466 45-473 97l0 3 0 200 0-200z m1000 500l0-200c0-55-224-100-500-100l-27 0c-259 3-466 45-473 97l0 3 0 200c0-55 224-100 500-100l27 0c259 3 466 45 473 97l0 3z" />
<glyph glyph-name="descending" horiz-adv-x="1000" unicode="&#x13b04;" d="M960 534c22 0 40 18 40 40 0 23-18 41-40 41l-371 0c-23 0-41-18-41-41 0-22 18-40 41-40l371 0z m-65-161c22 0 41 18 41 40 0 22-19 40-41 40l-306 0c-23 0-41-18-41-40 0-22 18-40 41-40l306 0z m-64-162c22 0 40 18 40 41 0 22-18 40-40 40l-242 0c-23 0-41-18-41-40 0-23 18-41 41-41l242 0z m-65-161c22 0 41 18 41 40 0 23-19 41-41 41l-177 0c-23 0-41-18-41-41 0-22 18-40 41-40l177 0z" />
<glyph glyph-name="descending" horiz-adv-x="1000" unicode="&#x13b05;" d="M227 517l106-105c13-14 34-14 47 0 14 13 14 34 0 47l-161 162c-13 13-35 13-48 0l-161-162c-13-13-13-34 0-47 13-14 35-14 48 0l105 105 0-435c0-18 14-32 32-32 18 0 32 14 32 32l0 435z" />
<glyph glyph-name="disable-motion" horiz-adv-x="1000" unicode="&#x13b06;" d="M619 750c210 0 381-171 381-381 0-210-171-381-381-381-92 0-175 32-241 85l-8 7 85 0c45 0 81 37 81 82 0 43-33 78-76 81l-5 0-148 0c-16 0-30-5-43-13-6 14-10 28-14 43l-4 15 209 0c45 0 81 36 81 81 0 43-33 78-76 81l-5 0-209 0c3 11 6 23 9 34l4 11 196 0c45 0 81 36 81 81 0 43-33 78-76 81l-5 0-85 0c68 58 153 93 249 93z m-320-545l147 0c25 0 45-20 45-45 0-23-18-42-40-45l-5 0-147 0c-25 0-45 21-45 45 0 23 18 43 40 45l5 0z m147 207c25 0 45-20 45-45 0-23-18-42-40-44l-5 0-275 0c-25 0-45 20-45 44 0 24 18 43 41 45l4 0 275 0z m0 208c25 0 45-21 45-45 0-24-18-43-40-45l-5 0-401 0c-25 0-45 20-45 45 0 23 18 42 41 44l4 1 401 0z" />
<glyph glyph-name="disable-motion" horiz-adv-x="1000" unicode="&#x13b07;" d="M619 750c-96 0-181-35-249-93l85 0c45 0 81-36 81-81 0-45-36-81-81-81l-196 0c-5-15-10-30-13-45l209 0c45 0 81-36 81-81 0-45-36-81-81-81l-209 0c5-21 11-39 18-58 13 8 27 13 43 13l148 0c45 0 81-36 81-81 0-45-36-82-81-82l-85 0c66-57 153-92 249-92 210 0 381 171 381 381 0 210-171 381-381 381z" />
<glyph glyph-name="download" horiz-adv-x="1000" unicode="&#x13b08;" d="M437 717l115 0c23 0 42-19 42-42l0-210 99 0c37 0 56-45 29-72l-198-195c-8-8-19-13-30-13-11 0-21 5-29 13l-197 193c-29 27-11 74 28 74l99 0 0 210c0 23 19 42 42 42z" />
<glyph glyph-name="download" horiz-adv-x="1000" unicode="&#x13b09;" d="M229 165l531 0 0 170c0 10 9 19 19 19l125 0c10 0 18-9 18-19l0-313c0-10-8-19-18-19-273 0-546 0-819 0-10 0-18 9-18 19l0 313c0 10 8 19 18 19l125 0c10 0 19-9 19-19l0-170z" />
<glyph glyph-name="duplicate-alt" horiz-adv-x="1000" unicode="&#x13d0d;" d="M355 627l492 0c32 0 59-25 62-56l0-5 0-616c0-32-25-58-56-61l-5 0-495 0-5 0c-29 4-52 27-54 56l0 5 0 616c0 32 24 58 56 61l5 0 492 0-492 0z" />
<glyph glyph-name="duplicate-alt" horiz-adv-x="1000" unicode="&#x13d0e;" d="M170 812l493 0c32 0 58-25 61-56l0-5 0-63-442 0c-27 0-48-20-50-46l-1-4 0-625-61 0c-32 0-58 24-61 56l0 5 0 677c0 32 24 58 56 61l5 0 493 0-493 0z" />
<glyph glyph-name="duplicate" horiz-adv-x="1000" unicode="&#x13d0f;" d="M979 350l-330-412-329 412 329 412z" />
<glyph glyph-name="duplicate" horiz-adv-x="1000" unicode="&#x13d10;" d="M474 63l-99-125-330 412 330 412 99-125-229-287z" />
<glyph glyph-name="envelope-badge" horiz-adv-x="1000" unicode="&#x13b0a;" d="M829 750l7 0c86-4 156-76 156-163 0-89-74-163-163-163-89 0-163 73-163 163 0 87 70 159 156 163l7 0z" />
<glyph glyph-name="envelope-badge" horiz-adv-x="1000" unicode="&#x13b0b;" d="M570 278l282-281c-15-13-40-19-74-19l-615 0c-38 0-65 6-81 20l282 280 22-22c27-26 53-38 81-38 29 0 54 12 81 38l22 22z m-524 314l275-272-277-275c-6 11-10 29-11 53l0 9 0 420c0 31 5 52 13 65z m567-272l90 89c36-26 79-41 126-41 21 0 42 4 61 9l10 4 0-274c0-26-3-45-9-58l-2-4-276 275 90 89z m9 336c-8-22-11-45-11-69 0-49 16-94 43-130l6-8-144-143c-17-17-32-25-49-25-15 0-28 6-44 20l-5 5-334 332c13 11 34 17 63 18l9 0 466 0z" />
<glyph glyph-name="envelope-open" horiz-adv-x="1000" unicode="&#x13b0c;" d="M635 194l333-310c-8-2-18-5-25-5l0 0-883 0c-10 0-20 3-28 5l0 0 335 310 60-42c45-32 102-32 149 0l0 0 59 42z m365 256l0-526-325 298 325 228z m-1000 0l325-228-322-298c-2 4-3 8-3 11l0 515z" />
<glyph glyph-name="envelope-open" horiz-adv-x="1000" unicode="&#x13b0d;" d="M1000 517l-454-318c-27-20-65-20-92 0l-454 318 1000 0z m-546 318c27 20 65 20 92 0l0 0 454-317-1000 0z" />
<glyph glyph-name="envelope" horiz-adv-x="1000" unicode="&#x13b0e;" d="M635 347l333-310c-8-3-18-5-25-5l0 0-883 0c-10 0-20 2-28 5l0 0 335 310 60-42c45-32 102-32 149 0l0 0 59 42z m365 256l0-526-325 297 325 229z m-1000 0l325-229-322-297c-2 3-3 7-3 10l0 516z" />
<glyph glyph-name="envelope" horiz-adv-x="1000" unicode="&#x13b0f;" d="M0 662l454-317c27-20 65-20 92 0l454 317c-2 32-27 55-57 55l-883 0c-30 0-57-23-60-55z" />
<glyph glyph-name="equalizer" horiz-adv-x="1000" unicode="&#x13b10;" d="M359 194c95 0 172-77 172-172 0-95-77-172-172-172-78 0-144 53-165 125l-147 0c-26 0-47 21-47 47 0 26 21 47 47 47l147 0c21 72 87 125 165 125z m594 219c26 0 47-21 47-47 0-26-21-47-47-47l-83 0c3 15 5 31 5 47 0 16-2 32-5 47l83 0z m-594 437c95 0 172-77 172-172 0-95-77-172-172-172-78 0-144 53-165 125l-147 0c-26 0-47 22-47 47 0 26 21 47 47 47l147 0c21 72 87 125 165 125z" />
<glyph glyph-name="equalizer" horiz-adv-x="1000" unicode="&#x13b11;" d="M953 69c26 0 47-21 47-47 0-26-21-47-47-47l-364 0c3 15 5 31 5 47 0 16-2 32-5 47l364 0z m-312 469c94 0 172-77 172-172 0-95-78-172-172-172-79 0-145 53-166 125l-428 0c-26 0-47 21-47 47 0 26 21 47 47 47l428 0c21 72 87 125 166 125z m312 187c26 0 47-21 47-47 0-25-21-47-47-47l-364 0c3 15 5 31 5 47 0 16-2 32-5 47l364 0z" />
<glyph glyph-name="exit" horiz-adv-x="1000" unicode="&#x13b12;" d="M479-142c-263 0-479 216-479 480 0 127 50 243 128 323 70 75 183-11 107-96-55-59-90-139-90-227 0-185 150-334 334-334 185 0 334 149 334 334 0 88-34 168-89 227-76 85 37 171 107 96 77-80 128-196 128-323 0-264-216-480-480-480z" />
<glyph glyph-name="exit" horiz-adv-x="1000" unicode="&#x13b13;" d="M479 316c49 0 81 34 81 85l0 363c0 52-32 86-81 86-48 0-80-34-80-86l0-363c0-51 32-85 80-85z" />
<glyph glyph-name="expand-full" horiz-adv-x="1000" unicode="&#x13b14;" d="M327 177c20-21 21-53 4-75l-4-4-121-120 80-81c16-16 6-44-16-47l-4 0-238 0c-14 0-26 10-28 24l0 4 0 238c0 24 27 36 44 23l3-3 81-80 120 121c21 21 57 21 79 0z m645 673c14 0 26-10 28-24l0-4 0-238c0-24-27-36-44-23l-3 3-81 80-120-121c-21-21-57-21-79 0-20 21-21 53-4 75l4 4 121 120-80 81c-16 16-6 44 16 47l4 0 238 0z" />
<glyph glyph-name="expand-full" horiz-adv-x="1000" unicode="&#x13b15;" d="M748 181l4-4 120-121 81 80c16 16 44 6 47-16l0-4 0-238c0-14-10-26-24-28l-4 0-238 0c-24 0-36 27-23 44l3 3 80 81-121 120c-21 21-21 57 0 79 21 20 53 21 75 4z m-482 669c24 0 36-27 23-44l-3-3-80-81 121-120c21-21 21-57 0-79-21-20-53-21-75-4l-4 4-120 121-81-80c-16-16-43-6-47 16l0 4 0 238c0 14 10 26 24 28l4 0 238 0z" />
<glyph glyph-name="expand" horiz-adv-x="1000" unicode="&#x13b16;" d="M340 10l-61 61 91 90c16 16 16 43 0 59-16 16-43 16-59 0l-90-91-61 61c-12 13-35 3-35-15l0-179c0-12 9-21 21-21l179 0c18 0 28 22 15 35z" />
<glyph glyph-name="expand" horiz-adv-x="1000" unicode="&#x13b17;" d="M660 690l61-61-91-90c-16-16-16-43 0-59 16-16 43-16 59 0l90 91 61-61c13-12 35-3 35 15l0 179c0 12-9 21-21 21l-179 0c-18 0-27-22-15-35l0 0z" />
<glyph glyph-name="eye-close" horiz-adv-x="1000" unicode="&#x13b18;" d="M469 381l31-43c3 3 6 7 8 11m-279 398c8 7 19 9 28 6 10-2 19-8 25-16l0 0 84-117c45 12 91 18 137 18 93 0 184-24 265-71 78-45 143-109 189-187 9-10 13-24 13-37-1-13-6-26-13-38l0 0-9-15c-24-39-53-75-87-106-36-36-78-66-124-87l0 0 68-96c6-8 9-19 6-29-1-10-7-19-15-24l0 0-22-16c-8-6-18-9-28-6-10 2-19 7-25 15l0 0-523 738c-6 8-9 18-6 28 1 10 7 19 16 25l0 0z m-28-197l94-134c-9-23-13-47-13-71 0-38 10-76 28-109 20-34 48-62 81-81 32-22 70-32 109-31l0 0 50-72c-17-2-33-4-50-3-93 0-184 25-264 72-79 44-144 109-190 186l0 0-3 3c-7 11-10 23-10 35 2 13 6 26 13 37l0 0 6 12c37 63 88 116 149 156l0 0z m312 20l-10 0c-28-1-57-6-84-16l0 0 31-43c0 0 44-115 190-265l0 0 31-43c15 20 28 42 39 65l0 0 0-1c10 25 14 52 14 79 0 39-10 78-31 112-20 33-47 61-81 81-32 21-70 32-109 31z" />
<glyph glyph-name="eye-close" horiz-adv-x="1000" unicode="&#x13b19;" d="M469 381l31-43c3 3 6 7 8 11m-194 31l128-180c-39 10-73 33-97 65-24 33-35 74-31 115l0 0z m115 149c21 7 44 9 66 7 22-4 44-10 65-19-19-1-37-8-50-22-14-12-22-31-22-50 1-18 9-36 22-49 13-15 31-23 50-22 19 1 36 9 50 22 14 12 22 30 22 49 14-27 21-59 18-90-1-32-12-64-31-90-146 149-190 264-190 264z" />
<glyph glyph-name="eye-open" horiz-adv-x="1000" unicode="&#x13b1a;" d="M988 406c8-13 12-27 12-42 0-15-4-29-12-42-50-84-118-151-203-201-87-51-182-77-285-77-103 0-198 26-285 77-85 50-153 117-203 201-8 13-12 27-12 42 0 15 4 29 12 42 50 84 118 151 203 201 87 51 182 76 285 76 103 0 198-25 285-76 85-50 153-117 203-201z m-488-278c43 0 82 11 118 32 36 21 65 50 86 86 21 36 32 75 32 118 0 43-11 82-32 118-21 36-50 65-86 86-36 21-75 32-118 32-43 0-82-11-118-32-36-21-65-50-86-86-21-36-32-75-32-118 0-43 11-82 32-118 21-36 50-65 86-86 36-21 75-32 118-32z" />
<glyph glyph-name="eye-open" horiz-adv-x="1000" unicode="&#x13b1b;" d="M681 364c0-50-18-92-53-128-36-35-78-53-128-53-50 0-92 18-128 53-35 36-53 78-53 128 0 30 7 58 21 85 0-21 8-38 22-53 14-14 32-22 53-22 21 0 38 8 53 22 14 15 22 32 22 53 0 21-8 38-22 53-15 14-32 22-53 22 27 14 55 20 85 20 50 0 92-17 128-52 35-36 53-78 53-128z" />
<glyph glyph-name="feed" horiz-adv-x="1000" unicode="&#x13b1c;" d="M286 409c-28 5-53-18-53-47 0-23 18-42 41-46 98-17 174-94 192-192 4-23 23-41 46-41 29 0 52 25 47 53-22 140-133 251-273 273l0 0z m-1 190c-27 3-52-19-52-47 0-24 19-44 43-46 200-20 359-180 379-380 3-24 23-43 47-43 28 0 50 25 47 52-24 245-219 440-464 464z" />
<glyph glyph-name="feed" horiz-adv-x="1000" unicode="&#x13b1d;" d="M306 229c40 0 73-33 73-73 0-40-33-73-73-73-40 0-73 33-73 73 0 40 33 73 73 73z" />
<glyph glyph-name="field-group" horiz-adv-x="1000" unicode="&#x13b1e;" d="M314 92c51-38 86-97 89-164l0-10 0-14c0-21-16-37-36-40l-4 0-323 0c-21 0-38 16-40 36l0 4 0 14c0 72 35 134 89 174 28-31 68-51 112-51 45 0 85 20 113 51z m564 0c51-38 86-97 89-164l0-10 0-14c0-21-16-37-36-40l-5 0-322 0c-21 0-38 16-40 36l0 4 0 14c0 72 35 134 89 174 28-31 67-51 112-51 45 0 85 20 113 51z m-676 205c60 0 109-48 109-108 0-60-49-108-109-108-61 0-110 48-110 108 0 60 49 108 110 108z m563 0c61 0 110-48 110-108 0-60-49-108-110-108-60 0-109 48-109 108 0 60 49 108 109 108z m-169 314c51-37 86-96 89-164l0-9 0-14c0-21-16-38-36-40l-5 0-322 0c-21 0-38 15-40 35l0 5 0 14c0 71 35 134 89 173 28-31 68-50 112-50 45 0 85 19 113 50z m-113 206c61 0 110-49 110-108 0-60-49-109-110-109-60 0-109 49-109 109 0 59 49 108 109 108z" />
<glyph glyph-name="field-group" horiz-adv-x="1000" unicode="&#x13b1f;" d="M483 341c10 0 19-8 20-17l1-3 0-91 84-84c8-7 8-20 0-28-7-7-18-7-26-2l-2 2-77 75-76-75c-8-7-20-7-28 0-7 7-8 18-3 26l3 2 84 84 0 91c0 11 9 20 20 20z" />
<glyph glyph-name="fields" horiz-adv-x="1000" unicode="&#x13b20;" d="M33-92c-18 0-33 14-33 32 0 18 15 32 33 32l97 0 0 780-97 0c-18 0-33 14-33 32 0 18 15 33 33 33l259 0c18 0 33-15 33-33 0-18-15-32-33-32l-97 0 0-780 97 0c18 0 33-14 33-32 0-18-15-32-33-32l-259 0z" />
<glyph glyph-name="fields" horiz-adv-x="1000" unicode="&#x13b21;" d="M907 622c37 0 67-30 67-67l0-386c0-35-27-64-62-66l-5-1-581 0c-36 0-66 30-66 67l0 386c0 37 30 67 66 67l581 0z" />
<glyph glyph-name="file-add" horiz-adv-x="1000" unicode="&#x13b22;" d="M660 850l-527 0c-18 0-33-15-33-33l0-934c0-18 15-33 33-33l234 0c18 0 33 15 33 33l0 41c0 18-15 33-33 33l-120 0c-19 0-34 15-34 33l0 708c0 18 15 33 34 33l280 0c18 0 33-15 33-33l0-155 160 0c19 0 34-14 34-33l0-160c0-19 14-34 33-34l47 0c18 0 33 15 33 34l0 293c0 9-3 17-10 23l-174 174c-6 7-14 10-23 10z" />
<glyph glyph-name="file-add" horiz-adv-x="1000" unicode="&#x13b23;" d="M712 190l-31 0c-23 0-41-18-41-41l0-72-72 0c-23 0-41-19-41-41l0-32c0-22 18-41 41-41l72 0 0-72c0-23 18-41 41-41l31 0c23 0 41 18 41 41l0 72 73 0c22 0 41 19 41 41l0 32c0 22-19 41-41 41l-73 0 0 72c0 23-18 41-41 41z" />
<glyph glyph-name="file-check" horiz-adv-x="1000" unicode="&#x13b24;" d="M660 850l-527 0c-18 0-33-15-33-33l0-934c0-18 15-33 33-33l234 0c18 0 33 15 33 33l0 41c0 18-15 33-33 33l-120 0c-19 0-34 15-34 33l0 708c0 18 15 33 34 33l280 0c18 0 33-15 33-33l0-155 160 0c19 0 34-14 34-33l0-160c0-19 14-34 33-34l47 0c18 0 33 15 33 34l0 293c0 9-3 17-10 23l-174 174c-6 7-14 10-23 10z" />
<glyph glyph-name="file-check" horiz-adv-x="1000" unicode="&#x13b25;" d="M560 72c-17 17-46 17-63 0-18-18-18-46 0-64l118-119c18-17 46-17 64 0l301 301c17 17 17 46 0 64-18 17-46 17-64 0l-269-269-87 87z" />
<glyph glyph-name="file-minus" horiz-adv-x="1000" unicode="&#x13b26;" d="M660 850l-527 0c-18 0-33-15-33-33l0-934c0-18 15-33 33-33l234 0c18 0 33 15 33 33l0 41c0 18-15 33-33 33l-120 0c-19 0-34 15-34 33l0 708c0 18 15 33 34 33l280 0c18 0 33-15 33-33l0-155 160 0c19 0 34-14 34-33l0-160c0-19 14-34 33-34l47 0c18 0 33 15 33 34l0 293c0 9-3 17-10 23l-174 174c-6 7-14 10-23 10z" />
<glyph glyph-name="file-minus" horiz-adv-x="1000" unicode="&#x13cdd;" d="M567 83h266c19 0 34-15 34-33v-33c0-19-15-34-34-34h-266c-19 0-34 15-34 34v33c0 18 15 33 34 33z" />
<glyph glyph-name="file-remove" horiz-adv-x="1000" unicode="&#x13b28;" d="M133 850l527 0c7 0 14-2 20-7l3-3 174-174c5-5 9-11 10-19l0-4 0-293c0-17-13-31-29-33l-4-1-47 0c-17 0-31 13-33 30l0 4 0 160c0 17-13 31-30 33l-4 0-160 0 0 155c0 17-13 31-29 32l-4 1-280 0c-18 0-32-13-33-30l-1-3 0-708c0-17 13-31 30-33l4 0 120 0c17 0 31-13 33-29l0-4 0-41c0-17-13-31-29-33l-4 0-234 0c-17 0-31 13-33 29l0 4 0 934c0 17 13 31 29 33l4 0 527 0-527 0z" />
<glyph glyph-name="file-remove" horiz-adv-x="1000" unicode="&#x13b29;" d="M697 100l51 51c15 15 38 16 54 3l4-3 22-22c15-15 16-38 3-54l-3-4-51-51 51-51c15-15 16-39 3-55l-3-3-22-22c-15-15-38-16-55-4l-3 4-51 51-51-51c-15-15-39-16-55-4l-3 4-22 22c-15 15-16 38-4 54l4 4 51 51-51 51c-15 15-16 38-4 54l4 4 22 22c15 15 38 16 54 3l4-3 51-51 51 51-51-51z" />
<glyph glyph-name="file" horiz-adv-x="1000" unicode="&#x13b2a;" d="M590 642c23 0 44-9 60-25l201-201c15-16 24-37 24-59l0-382c0-46-37-83-83-83l-459 0c-46 0-83 37-83 83l0 583c0 46 38 84 83 84l257 0z m-7-63l0-187c0-23 19-42 42-42l188 0-230 229z" />
<glyph glyph-name="file" horiz-adv-x="1000" unicode="&#x13b2b;" d="M625 808l-458 0c-46 0-84-37-84-83l0-542c0-23 19-41 42-41 23 0 42 18 42 41l0 500c0 23 18 42 41 42l417 0c23 0 42 19 42 42 0 23-19 41-42 41z" />
<glyph glyph-name="first" horiz-adv-x="1000" unicode="&#x13b2c;" d="M222 683c31 0 56-25 56-55l0-556c0-30-25-55-56-55-30 0-55 25-55 55l0 556c0 30 25 55 55 55z" />
<glyph glyph-name="first" horiz-adv-x="1000" unicode="&#x13b2d;" d="M484 390l255 255c21 21 56 21 78 0 20-21 22-53 4-74l-4-5-216-216 216-216c21-21 21-57 0-78-20-20-52-21-74-4l-4 4-255 255c-20 20-22 52-4 74l4 5 255 255-255-255z" />
<glyph glyph-name="flag" horiz-adv-x="1000" unicode="&#x13b2e;" d="M638 652l252 0c26 0 52-24 55-50l0-5 0-439c0-26-24-52-50-55l-5 0-285 0c-26 0-46 14-54 38l-1 6-11 66 99 0 0 439 252 0-252 0z" />
<glyph glyph-name="flag" horiz-adv-x="1000" unicode="&#x13b2f;" d="M122 817l389 0c26 0 47-14 54-38l18-72 0-439-406 0 0-330c0-27-28-55-55-55-26 0-52 24-55 50l0 5 0 824c0 26 24 51 49 54l6 1 389 0-389 0z" />
<glyph glyph-name="folder-close" horiz-adv-x="1000" unicode="&#x13b30;" d="M963 508c-5 2-11 3-16 3l-355 0c-37 0-71 21-88 54l-32 64c-2 5-5 9-8 14-19 25-48 40-80 40l-329 0c-15 0-30-6-40-17-11-12-16-27-15-42l48-575c2-28 26-50 54-50l813 0c27 0 50 21 53 49l32 405c2 25-13 48-37 55l0 0z" />
<glyph glyph-name="folder-close" horiz-adv-x="1000" unicode="&#x13b31;" d="M549 588l-19 37c-2 4-2 8 0 12 2 3 6 5 10 6l370 0c29 0 53-24 53-53l0-18c0-4-1-7-4-9-2-2-5-3-8-3-63 0-359 1-359 1-18 0-35 10-43 27z" />
<glyph glyph-name="folder-open" horiz-adv-x="1000" unicode="&#x13b32;" d="M938 436l-554 0c-9 0-17 6-19 14l-23 68c-9 25-33 42-59 42l-220 0c-35 0-63-28-63-62 0-57 8-113 25-167l83-274c13-44 54-74 100-74l588 0c44 0 83 27 98 67l90 238c11 28 16 57 16 87 0 34-28 61-62 61z" />
<glyph glyph-name="folder-open" horiz-adv-x="1000" unicode="&#x13b33;" d="M813 683l-625 0c-37 0-72-19-90-51-4-6-4-14 0-21 3-6 10-10 18-10l167 0c44 0 84-28 98-70l13-39c3-9 11-14 20-14l482 0c11 0 21 9 21 20l0 82c0 57-47 103-104 103z" />
<glyph glyph-name="folder-plus" horiz-adv-x="1000" unicode="&#x13b34;" d="M417 717c37 0 66-30 66-67l0-83 350 0c37 0 67-30 67-67l0-425c0-37-30-67-67-67l-700 0c-36 0-66 30-66 67l0 425 0 150c0 37 30 67 66 67l284 0z m83-300c-8 0-14-5-17-12l0-5-1 0 0-1 0-98-98 0c-9 0-17-8-17-18 0-8 6-16 15-17l2 0 98 0 0-98c0-10 8-18 18-18 9 0 16 6 18 15l0 3 0 98 98 0c9 0 17 8 17 17 0 9-6 17-15 18l-2 0-98 0 0 98c0 10-8 18-18 18z" />
<glyph glyph-name="folder-plus" horiz-adv-x="1000" unicode="&#x13b35;" d="" />
<glyph glyph-name="folder-remove" horiz-adv-x="1000" unicode="&#x13b36;" d="" />
<glyph glyph-name="folder-remove" horiz-adv-x="1000" unicode="&#x13b37;" d="M417 717c37 0 66-30 66-67l0-83 350 0c37 0 67-30 67-67l0-425c0-37-30-67-67-67l-700 0c-36 0-66 30-66 67l0 425 0 150c0 37 30 67 66 67l284 0z m199-416l-232 0c-9 0-17-8-17-18 0-8 6-16 15-17l2 0 232 0c9 0 17 8 17 17 0 10-8 18-17 18z" />
<glyph glyph-name="gift" horiz-adv-x="1000" unicode="&#x13b38;" d="M929 636l-127 0c34 38 55 87 55 143l0 71-214 0c-79 0-143-64-143-143 0 79-64 143-143 143l-214 0 0-71c0-56 21-105 56-143l-128 0c-39 0-71-32-71-72l0-143 1000 0 0 143c0 40-32 72-71 72z m-500 0l-72 0c-79 0-143 64-143 143l143 0c40 0 72-32 72-72l0-71z m214 0l-72 0 0 71c0 40 33 72 72 72l143 0c0-79-64-143-143-143z" />
<glyph glyph-name="gift" horiz-adv-x="1000" unicode="&#x13b39;" d="M429 350l0-500-215 0c-76 0-139 60-142 136l-1 7 0 357 358 0z m500 0l0-357c0-77-61-139-136-143l-7 0-215 0 0 500 358 0z" />
<glyph glyph-name="grayscale" horiz-adv-x="1000" unicode="&#x13b3a;" d="M831 285c0-17-2-35-4-52 1 4 1 8 2 13-5-34-14-66-27-97 2 4 3 7 5 11-13-30-30-59-50-85 3 4 5 7 8 10-20-26-43-49-69-69 3 3 6 5 9 7-26-20-54-36-84-49 4 1 7 3 11 5-31-13-63-22-97-27 4 1 9 1 13 2-35-5-69-5-104 0 4-1 9-1 13-2-34 5-66 14-97 27 4-2 7-4 11-5-30 13-58 30-84 49 3-2 6-4 9-7-26 20-49 43-69 69 3-3 5-6 8-10-20 26-37 55-50 85 2-4 3-7 5-11-13 31-22 63-27 97 1-5 2-9 2-13-5 34-5 69 0 103-1-4-1-8-2-12 5 33 14 66 27 97-2-4-3-7-5-11 13 30 30 59 50 85-2-3-5-6-7-9 18 22 38 43 58 64 25 24 50 48 75 71 46 42 92 83 139 124 10 8 19 17 29 25-22 0-44 0-66 0 28-24 56-48 83-72 51-45 103-91 152-140 23-23 46-46 67-72-3 3-5 6-8 9 21-26 37-55 50-85-1 4-3 7-4 11 13-31 22-64 26-97 0 4-1 8-1 12 1-17 3-34 3-51 0-24 21-48 46-47 25 1 47 21 47 47 0 72-19 143-53 207-24 44-58 82-93 117-33 34-67 65-101 97-32 29-65 58-97 86-17 15-34 29-50 44-1 0-1 0-1 0-9 8-21 15-33 14-13-1-23-5-33-14-21-17-41-35-61-53-43-37-85-75-127-114-37-35-75-70-108-110-14-18-28-37-40-57-12-20-21-41-30-62-17-41-25-85-28-129-5-76 11-153 46-220 32-65 81-119 140-160 61-42 132-66 205-72 75-7 150 8 218 39 65 30 121 78 164 135 22 30 38 61 52 95 14 34 22 70 27 107 2 17 3 33 3 50 0 24-22 48-47 47-25-2-46-21-46-47z" />
<glyph glyph-name="grayscale" horiz-adv-x="1000" unicode="&#x13b3b;" d="M877 285c0-211-171-382-381-382l0 900c0 0 224-191 294-276 55-66 87-150 87-242z" />
<glyph glyph-name="grid-advance" horiz-adv-x="1000" unicode="&#x13b3c;" d="M978 175l0-72c0-89-46-138-132-141l-8 0-136 0 0 213 276 0z m-702 0l0-213-136 0c-91 0-140 49-140 141l0 72 276 0z m345 280l0-198-264 0 0 198 264 0z m217 295c89 0 137-46 140-133l0-8 0-71-276 0 0 212 136 0z m-562 0l0-212-276 0 0 71c0 89 46 138 132 141l8 0 136 0z" />
<glyph glyph-name="grid-advance" horiz-adv-x="1000" unicode="&#x13b3d;" d="M621 175l0-213-264 0 0 213 264 0z m357 280l0-198-276 0 0 198 276 0z m-702 0l0-198-276 0 0 198 276 0z m345 295l0-212-264 0 0 212 264 0z" />
<glyph glyph-name="groups" horiz-adv-x="1000" unicode="&#x13b3e;" d="M193 301c47 0 85-14 113-33-57-47-87-124-64-166l3-4-196 0c-36 0-49 15-49 41 0 73 76 162 193 162z m606 0c117 0 193-89 193-162 0-25-12-40-43-41l-6 0-196 0c28 41-2 122-62 170 29 19 67 33 114 33z m-606 246c49 0 92-44 92-101 0-59-42-105-92-105-50 0-92 46-92 104 0 57 42 102 92 102z m606 0c49 0 92-45 92-102 0-58-42-104-92-104-50 0-92 46-92 105 0 57 42 101 92 101z" />
<glyph glyph-name="groups" horiz-adv-x="1000" unicode="&#x13b3f;" d="M496 300c136 0 221-95 221-164 0-25-15-38-58-38l-326 0c-44 0-59 13-59 38 0 69 86 164 222 164z m0 283c57 0 106-50 106-116 0-67-49-119-106-119-57 0-106 52-106 119 0 65 49 116 106 116z" />
<glyph glyph-name="home" horiz-adv-x="1000" unicode="&#x13b40;" d="M132 22l0 298 355 323c4 4 8 6 13 6 4 0 8-2 12-6l356-322 0-299c0-59-37-95-98-95l-163 0 0 297c0 19-13 32-32 32l-149 0c-19 0-32-13-32-32l0-297-164 0c-61 0-98 36-98 95z" />
<glyph glyph-name="home" horiz-adv-x="1000" unicode="&#x13b41;" d="M0 369c0-23 19-39 42-39 14 0 25 6 35 16l410 374c4 4 9 5 13 5 5 0 9-1 13-5l410-374c10-10 21-16 35-16 24 0 42 16 42 39 0 13-4 23-15 33l-149 136 0 249c0 18-12 30-31 30l-66 0c-19 0-31-12-31-30l0-133-149 137c-18 16-38 24-59 24-21 0-41-8-58-24l-427-389c-10-10-15-20-15-33z" />
<glyph glyph-name="increase" horiz-adv-x="1000" unicode="&#x13b42;" d="M500 649l0-598c165 0 299 134 299 299 0 165-134 299-299 299z" />
<glyph glyph-name="increase" horiz-adv-x="1000" unicode="&#x13b43;" d="M500 849c-275 0-499-224-499-499 0-276 224-499 499-499 275 0 499 223 499 499 0 275-224 499-499 499z m0-898c-220 0-399 179-399 399 0 220 179 399 399 399 220 0 399-179 399-399 0-220-179-399-399-399z" />
<glyph glyph-name="info-circle" horiz-adv-x="1000" unicode="&#x13b44;" d="M500 850c276 0 500-224 500-500 0-276-224-500-500-500-276 0-500 224-500 500 0 276 224 500 500 500z m0-100c-221 0-400-179-400-400 0-220 179-400 400-400 221 0 400 180 400 400 0 221-179 400-400 400z" />
<glyph glyph-name="info-circle" horiz-adv-x="1000" unicode="&#x13b45;" d="M450 400l50 0c26 0 47-20 50-45l0-5 0-150c28 0 50-22 50-50 0-26-20-47-45-50l-5 0-50 0c-26 0-47 20-50 45l0 5 0 150c-28 0-50 22-50 50 0 26 20 47 45 50l5 0 50 0-50 0z m50 205c30 0 55-25 55-55 0-30-25-55-55-55-30 0-55 25-55 55 0 30 25 55 55 55z" />
<glyph glyph-name="info" horiz-adv-x="1000" unicode="&#x13b46;" d="M504 700c44-1 79-37 79-81 0-42-33-77-75-79l-5-1c-44 1-80 37-80 81 1 44 37 80 81 80z" />
<glyph glyph-name="info" horiz-adv-x="1000" unicode="&#x13b47;" d="M463 377c-3 1-7 1-10 2-30 5-52 33-49 63 2 32 29 57 61 56 17 0 35-1 52 0 34 2 67-21 67-67-1-55 0-109 0-163 0-55 0-108 0-162 0-4 0-8 0-12l11-3c30-5 51-33 49-64-3-31-28-55-59-55-41-1-81-1-122 0-32 0-58 25-59 57-3 29 18 55 47 62 4 1 7 2 12 3l0 283 0 0z" />
<glyph glyph-name="lamp" horiz-adv-x="1000" unicode="&#x13b48;" d="M625 564l0 159c0 23-19 42-42 42l-166 0c-23 0-42-19-42-42l0-159c-85-49-138-146-122-255 17-109 107-196 216-209 151-19 281 100 281 248 0 92-50 173-125 216z" />
<glyph glyph-name="lamp" horiz-adv-x="1000" unicode="&#x13b49;" d="M500 14c22 0 39-16 41-37l0-4 0-40c0-22-16-39-37-41l-4 0c-22 0-39 16-41 37l-1 4 0 40c0 21 16 39 37 41l5 0z m248 86c15 15 39 16 55 3l3-3 17-16c16-16 16-43 0-59-16-15-39-16-56-3l-3 3-16 16c-17 17-17 42 0 59z m-500 3l4-3c15-15 16-39 3-55l-3-3-16-17c-16-16-43-16-59 0-15 16-16 39-3 56l3 3 16 16c15 16 39 17 55 3z m-123 287c22 0 39-16 41-37l0-5c0-22-16-39-37-41l-4 0-42 0c-22 0-39 16-41 37l0 4c0 22 16 39 37 41l4 1 42 0z m750 0l42 0c21 0 39-16 41-37l0-5c0-22-16-39-37-41l-4 0-42 0c-22 0-39 16-41 37l-1 4c0 22 16 39 37 41l5 1z" />
<glyph glyph-name="last" horiz-adv-x="1000" unicode="&#x13b4a;" d="M778 683c30 0 55-25 55-55l0-556c0-30-25-55-55-55-31 0-56 25-56 55l0 556c0 30 25 55 56 55z" />
<glyph glyph-name="last" horiz-adv-x="1000" unicode="&#x13b4b;" d="M261 645l255-255c22-22 22-57 0-79l-255-255c-21-21-56-21-78 0-21 21-21 57 1 78l215 216-216 216c-22 22-22 57 0 79 22 21 57 21 78 0z" />
<glyph glyph-name="learn" horiz-adv-x="1000" unicode="&#x13b4c;" d="M208 301l0-117c0-31 17-59 44-74l208-113c25-14 55-14 80 0l208 113c27 15 44 43 44 74l0 117-252-138c-25-13-55-13-80 0l-252 138z" />
<glyph glyph-name="learn" horiz-adv-x="1000" unicode="&#x13b4d;" d="M460 703l-351-191c-29-16-29-58 0-74l351-191c25-14 55-14 80 0l335 183 0-247c0-23 19-41 42-41 23 0 41 18 41 41l0 267c0 16-8 30-21 37l-397 216c-25 14-55 14-80 0z" />
<glyph glyph-name="link" horiz-adv-x="1000" unicode="&#x13b4e;" d="M862 391l-162-163c-89-90-234-90-323 0-15 14-26 30-35 46l75 76c4 4 8 6 12 8 5-18 14-35 28-49 45-44 118-44 162 0l162 163c45 45 45 118 0 163-45 45-117 45-162 0l-57-58c-47 18-97 23-146 16l122 123c90 90 235 90 324 0 89-90 89-235 0-325z" />
<glyph glyph-name="link" horiz-adv-x="1000" unicode="&#x13b4f;" d="M434 123l-57-58c-45-44-118-44-162 0-45 45-45 118 0 163l162 163c44 45 117 45 161 0 14-14 23-31 29-49 4 2 8 4 12 8l75 76c-10 16-21 32-35 46-89 90-234 90-323 0l-162-163c-90-89-90-235 0-325 89-90 234-90 323 0l123 123c-49-7-99-2-146 16z" />
<glyph glyph-name="list" horiz-adv-x="1000" unicode="&#x13b50;" d="M375 225l417 0c21 0 39-16 41-37l0-5 0-83c0-21-16-39-37-41l-4-1-417 0c-21 0-39 17-41 38l-1 4 0 83c0 22 17 40 38 42l4 0z m0 208l417 0c21 0 39-16 41-37l0-4 0-84c0-21-16-39-37-41l-4 0-417 0c-21 0-39 16-41 37l-1 4 0 84c0 21 17 39 38 41l4 0z m0 209l417 0c21 0 39-17 41-38l0-4 0-83c0-22-16-40-37-42l-4 0-417 0c-21 0-39 17-41 37l-1 5 0 83c0 22 17 39 38 42l4 0 417 0-417 0z" />
<glyph glyph-name="list-thin" horiz-adv-x="1000" unicode="&#x13b51;" d="M879 159c27 0 48-21 48-48 0-26-21-47-48-47l-480 0c-27 0-48 21-48 47 0 27 21 48 48 48l480 0z m-480 243l480 0c27 0 48-22 48-48 0-25-19-45-43-47l-5 0-480 0c-27 0-48 21-48 47 0 25 19 45 43 47l5 1z m0 242l480 0c27 0 48-21 48-48 0-24-19-45-43-47l-5 0-480 0c-27 0-48 21-48 47 0 26 19 45 43 48l5 0z" />
<glyph glyph-name="list-thin" horiz-adv-x="1000" unicode="&#x13b52;" d="M154 165l65 0c29 0 54-24 54-54 0-27-22-51-49-53l-5 0-65 0c-30 0-54 24-54 53 0 28 22 51 49 54l5 0 65 0-65 0z m0 243l65 0c29 0 54-24 54-54 0-28-22-51-49-53l-5-1-65 0c-30 0-54 25-54 54 0 28 22 51 49 53l5 1z m0 242l65 0c29 0 54-24 54-54 0-27-22-50-49-53l-5 0-65 0c-30 0-54 24-54 53 0 29 22 51 49 54l5 0z" />
<glyph glyph-name="list" horiz-adv-x="1000" unicode="&#x13b53;" d="M167 225l83 0c22 0 39-16 42-37l0-5 0-83c0-21-17-39-38-41l-4-1-83 0c-22 0-40 17-42 38l0 4 0 83c0 22 17 40 37 42l5 0z m0 208l83 0c22 0 39-16 42-37l0-4 0-84c0-21-17-39-38-41l-4 0-83 0c-22 0-40 16-42 37l0 4 0 84c0 21 17 39 37 41l5 0z m0 209l83 0c22 0 39-17 42-38l0-4 0-83c0-22-17-40-38-42l-4 0-83 0c-22 0-40 17-42 37l0 5 0 83c0 22 17 39 37 42l5 0 83 0-83 0z" />
<glyph glyph-name="location-alt" horiz-adv-x="1000" unicode="&#x13b54;" d="M495 850c98 0 176-81 176-180 0-80-52-149-125-172l0 0 0-258c0-91-31-165-51-165-20 0-52 74-52 165l0 0 0 259c-72 23-124 91-124 171 0 99 78 180 176 180z m-50-67c-32 0-60-28-60-62 0-33 28-61 60-61 33 0 60 28 60 61 0 34-27 62-60 62z" />
<glyph glyph-name="location-alt" horiz-adv-x="1000" unicode="&#x13b55;" d="M494-107c-282 0-461 91-461 212 0 114 162 194 335 208l0-97c-113-9-224-51-224-106 0-71 146-118 350-118 203 0 350 47 350 118 0 55-111 97-224 106l0 97c173-14 335-94 335-208 0-121-179-212-461-212z" />
<glyph glyph-name="location" horiz-adv-x="1000" unicode="&#x13b56;" d="M943 45c0-153-274-176-438-176-164 0-438 23-438 176 0 113 153 155 299 169l24-87c-137-12-236-44-236-82 0-49 157-88 351-88 194 0 351 39 351 88 0 38-99 70-236 82l25 87c145-14 298-56 298-169z" />
<glyph glyph-name="location" horiz-adv-x="1000" unicode="&#x13b57;" d="M509 850c126 0 228-102 228-227 0-61-78-250-235-568l-29 64c-127 284-191 452-191 504 0 125 102 227 227 227z m-7-114c-62 0-113-50-113-113 0-63 51-114 113-114 63 0 114 51 114 114 0 63-51 113-114 113z" />
<glyph glyph-name="lock" horiz-adv-x="1000" unicode="&#x13b58;" d="M818 360c30 0 55-25 55-55l0-399c0-15-6-29-16-40-10-10-25-16-39-16l-621 0c-15 0-29 6-40 16-10 11-16 25-16 40l0 399c0 30 25 55 56 55l621 0z m-301-177c-46 0-84-37-84-83 0-46 38-83 84-83 46 0 83 37 83 83 0 46-37 83-83 83z" />
<glyph glyph-name="lock" horiz-adv-x="1000" unicode="&#x13b59;" d="M357 426c0-9-7-16-16-16l-71 0c-9 0-17 7-17 16l0 157c-2 93 47 180 127 227 80 47 180 47 260 0 80-47 129-134 127-227l0-157c0-9-7-16-16-16l-72 0c-9 0-16 7-16 16l0 156c2 56-27 108-75 136-48 29-107 29-155 1-48-28-77-80-76-136l0-157z" />
<glyph glyph-name="logs" horiz-adv-x="1000" unicode="&#x13bd5;" d="M750 725c0 69 56 125 125 125 69 0 125-56 125-125 0-69-56-125-125-125-69 0-125 56-125 125z" />
<glyph glyph-name="logs" horiz-adv-x="1000" unicode="&#x13bd6;" d="M521 386l48-119 306 0 0-334c0-44-35-80-78-83l-5 0-709 0c-44 0-80 35-83 78l0 5 0 292 250 0 83-208 42 0 146 369z m-438 339l584 0c0-112 89-204 200-208l8 0 0-167-250 0-83 208-42 0-146-369-48 119-306 0 0 334c0 44 35 80 78 83l5 0 584 0-584 0z" />
<glyph glyph-name="loop" horiz-adv-x="1000" unicode="&#x13b5a;" d="M488 739l0 87c0 22-26 32-41 17l-136-136c-10-9-10-24 0-34l135-135c16-15 42-5 42 17l0 87c160 0 291-130 291-291 0-38-7-76-21-109-8-17-2-37 11-50 24-25 66-16 79 16 18 44 28 93 28 143 0 214-174 388-388 388z" />
<glyph glyph-name="loop" horiz-adv-x="1000" unicode="&#x13b5b;" d="M488 60c-161 0-291 131-291 291 0 38 7 76 21 109 8 18 2 37-11 51-25 24-66 16-79-17-18-44-28-93-28-143 0-214 174-388 388-388l0-87c0-22 26-32 41-17l135 136c10 9 10 24 0 34l-135 135c-15 15-41 5-41-17l0-87z" />
<glyph glyph-name="manage" horiz-adv-x="1000" unicode="&#x13b5c;" d="M428 850l0-450-390-225c-25 59-38 122-38 191-3 250 184 456 428 484z m122-450l0 450c241-28 428-234 428-484 0-64-13-122-32-177l-5-14-391 225 0 450 0-450z" />
<glyph glyph-name="manage-user" horiz-adv-x="1000" unicode="&#x13b5d;" d="M553 340c14 10 31 11 46 3l3-2 42-29-92-91 39-40-2-4 0 0-1-4-52-49 33-124 19-7 1-4 0 0 2-4-28-41-487 0c-44-2-44 55-42 76l0 5 0 185c0 13 5 24 15 32l3 3 138 96c15 11 35 10 50-1 45-33 99-52 156-52 58 0 111 19 157 52z m-157 510c109 0 197-67 197-206 0-138-88-251-197-251-109 0-197 113-197 251 0 139 88 206 197 206z" />
<glyph glyph-name="manage-user" horiz-adv-x="1000" unicode="&#x13b5e;" d="M906 66c2 6 4 12 6 18 1 6 2 13 3 19l48 22c5 2 7 7 6 12l-24 75c-2 5-7 8-11 7l-54-8c-8 10-18 19-28 26l4 53c0 4-3 9-8 10l-79 18c-4 1-9-1-11-6l-19-49c-13-2-26-5-38-11l-44 31c-4 2-10 2-13-2l-55-57c-3-3-3-9 0-12l34-42c-2-6-4-12-6-18-1-6-2-13-3-19l-48-22c-5-2-7-7-5-12l24-75c1-4 6-7 11-7l53 8c8-10 18-19 29-26l-5-53c0-4 3-9 8-10l79-18c5-1 10 1 11 6l19 49c13 2 26 6 38 11l44-31c4-2 10-2 13 2l55 57c3 3 3 9 0 13l-34 41z m-162-10c-39 9-63 47-54 86 9 39 47 63 86 54 39-9 63-48 54-86-9-39-48-63-86-54z" />
<glyph glyph-name="manage" horiz-adv-x="1000" unicode="&#x13b5f;" d="M97 72c91-119 231-194 391-194 159 0 303 78 390 194l-390 225-391-225z" />
<glyph glyph-name="mass-mail" horiz-adv-x="1000" unicode="&#x13b60;" d="M828 546l-653 0c-59 0-108-49-108-109l0-446c0-59 49-108 108-108l653 0c59 0 108 49 108 108l0 446c0 60-49 109-108 109z m0-560c-6-5-13-8-20-8-6 0-12 2-18 7l-212 199-59-50c-6-4-11-6-18-6-6 0-12 2-17 6l-59 50-212-199c-6-5-12-7-18-7-8 0-14 3-20 8-9 11-9 28 1 38l208 196-206 174c-12 10-13 27-4 38 10 11 27 12 38 3l289-245 290 245c12 9 28 8 38-3 9-12 8-28-4-38l-206-174 208-195c10-11 10-28 1-39z" />
<glyph glyph-name="mass-mail" horiz-adv-x="1000" unicode="&#x13b61;" d="M175 720l653 0c57 0 105-45 108-101l0-6 0-131c0 59-49 107-108 107l-653 0c-59 0-108-48-108-107l0 131c0 56 45 103 102 106l6 1z m0 130l653 0c57 0 105-45 108-101l0-6 0-87c0 59-49 107-108 107l-653 0c-59 0-108-48-108-107l0 87c0 57 45 104 102 107l6 0z" />
<glyph glyph-name="media" horiz-adv-x="1000" unicode="&#x13b62;" d="M195 143l0 585-24 0c-27 0-49-22-49-49l0-658c0-27 22-49 49-49l658 0c27 0 49 22 49 49l0 24-585 0c-54 0-98 44-98 98z" />
<glyph glyph-name="media" horiz-adv-x="1000" unicode="&#x13b63;" d="M73 606l0-585c0-54 44-98 98-98l585 0 0-24c0-27-22-49-49-49l-658 0c-27 0-49 22-49 49l0 658c0 27 22 49 49 49l24 0z m878 244c27 0 49-22 49-49l0-500-327 239c0 0-1 2-1 2-1 0-1 1-2 1-2 0-2 0-3 1-1 0-1 1-2 1l-10 0c-1 0-3 0-3-1 0 0-1 0-1-1-1 0-1-1-1-1l-1 0c-1 0-1-2-1-2-2 0-2-1-3-1l-2-2-338-443-12 0c-27 0-49 22-49 49l0 658c0 27 22 49 49 49l658 0z m-288-363l337-247 0-97c0-26-19-46-44-49l-5 0-585 0 297 393z m-248 290c-54 0-98-44-98-98 0-53 44-97 98-97 53 0 97 44 97 97 0 54-44 98-97 98z m0-49c27 0 48-22 48-49 0-27-21-48-48-48-27 0-49 21-49 48 0 27 22 49 49 49z" />
<glyph glyph-name="menu" horiz-adv-x="1000" unicode="&#x13b64;" d="M117 303l219 0c62 0 114-49 117-111l0-6 0-219c0-62-49-113-111-117l-6 0-219 0c-62 0-113 49-117 111l0 6 0 219c0 62 49 114 111 117l6 0 219 0-219 0z m547 547l219 0c62 0 113-49 117-111l0-6 0-219c0-62-49-114-111-117l-6 0-219 0c-62 0-114 49-117 111l0 6 0 219c0 62 49 113 111 117l6 0 219 0-219 0z" />
<glyph glyph-name="menu" horiz-adv-x="1000" unicode="&#x13b65;" d="M664 303l219 0c62 0 113-49 117-111l0-6 0-219c0-62-49-113-111-117l-6 0-219 0c-62 0-114 49-117 111l0 6 0 219c0 62 49 114 111 117l6 0 219 0-219 0z m-547 547l219 0c62 0 114-49 117-111l0-6 0-219c0-62-49-114-111-117l-6 0-219 0c-62 0-113 49-117 111l0 6 0 219c0 62 49 113 111 117l6 0 219 0-219 0z" />
<glyph glyph-name="messaging" horiz-adv-x="1000" unicode="&#x13b66;" d="M316 804c151 0 279-111 300-260-153-37-261-175-261-332 0-4 0-8 0-11-13-2-26-3-40-3-18 0-37 2-55 5-90-85-202-26-202-26 34 18 61 45 80 78-108 77-153 215-112 340 41 125 158 210 290 209z m-27-334l-133 0c-14 0-26-12-26-26l0 0c0-7 3-14 8-18 4-5 11-8 18-8l133 0c7 0 14 3 19 8 5 4 7 11 7 18l0 0c0 14-11 26-26 26z m163 115l-296 0c-15 0-26-11-26-26l0 0c0-7 2-14 7-19 5-4 12-7 19-7l296 0c7 0 14 3 19 7 4 5 7 12 7 19l0 0c0 7-3 13-7 18-5 5-12 8-19 8l0 0z" />
<glyph glyph-name="messaging" horiz-adv-x="1000" unicode="&#x13b67;" d="M722 514c126-10 233-98 267-220 34-122-12-253-114-327 18-34 46-61 80-78l0 0c-5-3-115-57-203 25-24-4-49-6-74-4-108 8-203 72-251 170-47 97-39 212 22 302 61 89 164 140 272 132l1 0z m-26-333l-133 0c-7 0-14-3-19-8-5-5-7-11-7-18l0 0c0-15 11-26 26-26l133 0c14 0 26 12 26 26l0 0c0 14-12 26-26 26l0 0z m161 115l-297 0c-7 0-13-3-18-8-5-4-8-11-8-18l0 0c0-7 3-13 8-18 5-5 11-8 18-8l297 0c6 0 13 3 18 8 5 5 8 11 8 18l0 0c-1 14-12 26-26 26l0 0z" />
<glyph glyph-name="modules" horiz-adv-x="1000" unicode="&#x13b68;" d="M283 459l25 0c25 1 47-16 52-40 1-10 0-21-6-30l-2-4c-4-5-6-11-7-17l-1-5 0-10c0-19 15-35 33-36l4-1 140 0 0-138c0-1 0-2-1-3-1-1-1-1-2-1l-1-1-11 0c0 1-1 1-2 1l-1 1c-4 3-9 5-14 7-14 7-29 9-44 6-39-7-67-38-68-76l-1-6 0-24c0-40 29-75 69-82 18-3 36 0 52 9l6 4c1 1 1 1 2 1l1 1 11 0c1 0 2-1 3-2 1 0 1-1 1-2l0-1 0-122-354 0c-43 0-77 32-80 74l-1 5 0 349 125 0c9 0 19 4 26 11 6 6 9 14 10 22l1 4 0 10c0 6-2 12-5 18l-3 4c-7 10-10 22-8 34 5 22 24 39 47 40l4 0 25 0-25 0z m271-143l124 0c2 0 4-1 4-3l1-1 0-10c0-1-1-2-1-3l-1-1c-12-17-17-37-14-58 8-37 40-65 78-66l6-1 25 0c40 0 75 28 83 67 3 21-2 41-14 58 0 1-1 1-1 2l0 2 0 10c0 2 1 3 3 4l2 0 140 0 0-349c0-42-33-76-75-79l-6 0-354 0 0 122c0 19-15 34-33 36l-4 0-11 0c-6 0-12-1-18-4l-4-3c-10-7-22-10-35-8-22 5-39 24-40 46l0 5 0 24c-1 25 16 46 40 51 11 2 22 0 31-5l4-3c5-4 11-6 18-7l4 0 11 0c19 0 34 14 36 32l1 4 0 138 124 0-124 0z" />
<glyph glyph-name="modules" horiz-adv-x="1000" unicode="&#x13b69;" d="M226 359l-2 9c0 2-1 3-2 4-14 15-22 34-21 55 1 40 32 73 73 78l24 3c40 6 79-17 92-55 6-19 4-40-5-59-1-1-1-2-1-3l1-10c0-2 1-3 2-3 1-1 2-2 4-1l138 19-17 121c-3 20 11 38 32 41l10 1c8 1 16 0 23-4 11-5 24-6 35-3 24 8 38 32 34 56l-4 24c-3 25-23 43-47 45-13 0-25-5-34-13-5-5-13-9-21-10l-10-2c-20-2-39 12-42 31l-19 137-351-48c-44-7-75-47-69-90l50-346 123 17c1 0 2 1 3 2 1 1 1 2 1 4z" />
<glyph glyph-name="mouse-pointer-highlighter" horiz-adv-x="1000" unicode="&#x13b6a;" d="M371 850c190 0 348-142 370-330l0 0 0-4c0-16-12-31-28-32l0 0-2 0c-16-1-31 12-34 28l0 0 0 1c-25 222-282 367-514 203-2-1-5-3-6-5-205-236-43-522 190-537l0 0 4-1c15-4 26-17 25-33l0 0 0-1c-1-18-16-31-34-29l0 0-10 0c-186 19-332 180-332 369 0 204 166 371 371 371z m-53-151c97 27 196-19 243-105l0 0 2-3c6-15-1-32-15-40l0 0-3-1c-15-7-32 0-40 14l0 0-3 6c-33 54-97 85-163 70-49-10-90-46-107-92-31-79 9-163 79-194l0 0 4-2c14-8 20-25 13-40l0 0-2-3c-8-14-25-20-40-13l0 0-7 3c-93 45-145 154-111 260 22 68 79 123 150 140z" />
<glyph glyph-name="mouse-pointer-highlighter" horiz-adv-x="1000" unicode="&#x13b6b;" d="M867-118l-252 250-61-114c-5-8-13-16-24-17-16-3-31 7-35 22l-108 402c-2 11 0 23 9 30 8 8 21 12 31 8l397-113c10-2 19-10 23-20 6-15-1-32-15-39l-117-60 251-252c28-28 28-72 0-99l0 0c-27-26-72-26-99 2z" />
<glyph glyph-name="move" horiz-adv-x="1000" unicode="&#x13b6c;" d="M353 0l42 42c7 7 18 8 26 3l3-3 75-75 75 75c7 7 18 8 26 3l3-3 42-42c7-7 8-18 2-26l-2-2-111-111c-9-10-22-14-35-14-11 0-22 3-31 11l-4 3-111 111c-7 7-8 17-2 25l2 3 42 42-42-42z m0 725l111 110c18 19 47 20 67 4l3-4 111-110c7-7 8-18 2-26l-2-3-42-42c-7-7-18-8-26-2l-2 2-76 76-75-76c-7-7-18-7-26-2l-2 2-43 43c-7 7-7 17-2 25l2 3 111 110-111-110z" />
<glyph glyph-name="move" horiz-adv-x="1000" unicode="&#x13b6d;" d="M870 499l3-2 111-111c18-18 19-47 3-67l-3-3-111-111c-7-7-18-8-26-2l-2 2-43 42c-7 7-7 18-2 26l2 3 76 75-76 75c-7 7-7 18-2 26l2 3 43 42c7 7 17 8 25 2z m-719 0l3-2 42-42c7-7 8-18 2-26l-2-3-75-75 75-75c7-7 8-18 2-26l-2-3-42-42c-7-7-18-8-26-2l-3 2-110 111c-19 18-20 47-4 67l4 3 110 111c7 6 16 7 23 4l3-2z m348-48c55 0 100-45 100-100 0-55-45-100-100-100-55 0-100 45-100 100 0 55 45 100 100 100z" />
<glyph glyph-name="multilingual" horiz-adv-x="1000" unicode="&#x13b6e;" d="M81 611c-18 0-33-17-33-37l0-472c0-21 15-38 33-38l83 0 0-182 159 182 329 0c18 0 32 17 32 38l0 472c0 20-14 37-32 37l-571 0z m236-107l8 0c6 0 12-1 21-2 9-1 16-1 20-1 1-4 0-10-3-17-2-3-3-5-3-7-2-5-4-13-5-24-1-3-1-5-1-6 5 0 11 1 17 3 26 3 50 8 71 13l0-35c-29-7-57-13-87-17l-8 0c-1-10-2-22-3-35 2 0 5 0 10 1 17 3 31 5 39 6 0 1 0 3 2 6l0 9c-2 4 0 6 3 7l37-6 2-4c-1-2-3-6-5-12 25-2 46-9 62-22 24-23 36-48 36-75l0-10c-1-36-22-66-62-90-15-9-28-13-37-13l-2 0-8 7c-11 9-20 16-26 20 26 4 48 12 67 24 19 15 29 34 30 55l0 6c-1 22-12 41-33 56-4 3-10 6-19 8l-1 0c-5 2-10 3-18 4-13-37-36-73-67-110 3-10 6-18 11-25-6-1-13-4-22-9-6-1-9-2-11-3-4 2-6 5-8 10-8-5-13-8-18-10-22-15-41-23-58-23l-6 0c-24 2-37 19-39 51l0 6c1 31 16 60 45 88 14 13 33 25 58 36 1 7 2 17 2 31 1 9 2 13 2 12l-24 0c-12-1-20-2-27-2l-23 0c-1 0-3 1-5 2l-6 12c-1 3-2 5-3 7l0 2c-4 6-4 10-2 13l17 0c8-1 13-1 16-1l24 0c15 0 28 1 37 3 0 2 1 5 2 9 2 14 3 26 3 35 0 6 0 12-2 17l0 0z m70-149c-18-3-31-6-38-9-1 0-3-1-5-2l0-34c0-18 1-27 2-27 20 26 33 50 41 72l0 0z m-81-26c-25-14-44-33-58-58-6-8-9-18-9-30 0-13 7-20 20-20 13 0 26 5 40 16 1 1 2 2 3 3 5 6 9 9 11 10l-2 5c-3 24-5 49-5 74l0 0z" />
<glyph glyph-name="multilingual" horiz-adv-x="1000" unicode="&#x13b6f;" d="M365 802c-18 0-33-17-33-37l0-112 320 0c10 0 20-3 29-7l18 46 52 0 130-334-48 0-31 85-76 0 0-225 126-145 0 182 83 0c18 0 33 17 33 37l0 473c0 20-15 37-33 37l-570 0z m360-154l-12-31c8-13 13-28 13-43l0-93 62 0-63 167z" />
<glyph glyph-name="new-tab-alt" horiz-adv-x="1000" unicode="&#x13b70;" d="M413 679l125-114-146-146c-32-31-42-63-42-94 0-31 10-62 31-83 32-32 63-42 94-42 29 0 58 9 87 27l7 4 146 146 114-114 0-209c0-60-39-101-98-104l-6 0-521 0c-60 0-101 39-104 98l0 6 0 521c0 61 39 102 98 104l6 0 209 0z" />
<glyph glyph-name="new-tab-alt" horiz-adv-x="1000" unicode="&#x13b71;" d="M871 783c31 0 62-20 62-52l0-271c0-20-20-41-41-41-10 0-19 0-28 7l-4 3-93 94-250-250c-21-21-63-21-94 0-21 21-21 62 0 94l250 250-94 93c-10 11-10 21-10 32 0 21 10 41 31 41l271 0z" />
<glyph glyph-name="next" horiz-adv-x="1000" unicode="&#x13b72;" d="M120 78l317 226c31 23 31 69 0 91l-317 227c-37 25-87-1-87-46l0-452c0-45 50-71 87-46z" />
<glyph glyph-name="next" horiz-adv-x="1000" unicode="&#x13b73;" d="M528 576l0-452c0-45 49-71 86-46l317 226c31 23 31 69 0 91l-317 226c-37 26-86 0-86-45l0 0z" />
<glyph glyph-name="notification-circle" horiz-adv-x="1000" unicode="&#x13b74;" d="M811 783c86 0 156-70 156-155 0-86-71-156-156-156-85 0-156 70-156 156 0 85 71 155 156 155z" />
<glyph glyph-name="notification-circle" horiz-adv-x="1000" unicode="&#x13b75;" d="M607 700c-9-22-13-47-13-72 0-119 98-217 217-217 25 0 50 4 73 13l0-301c0-77-7-141-52-187-43-43-103-52-173-53l-352 0c-77 0-142 7-188 53-43 43-51 102-52 173l0 353c0 75 6 139 52 185 43 43 103 52 172 53l316 0z" />
<glyph glyph-name="notification" horiz-adv-x="1000" unicode="&#x13cf5;" d="M401-21l191 0c0-53-43-96-96-96-51 0-92 40-95 90l0 6 191 0-191 0z" />
<glyph glyph-name="notification" horiz-adv-x="1000" unicode="&#x13d14;" d="M733 204l0 209c0 127-69 235-188 263l0 28c0 35-28 63-62 63-35 0-63-28-63-63l0-28c-119-28-187-135-187-263l0-209-54-54c-26-26-8-71 29-71l549 0c37 0 56 45 30 71l-54 54z" />
<glyph glyph-name="paint-brush" horiz-adv-x="1000" unicode="&#x13b78;" d="M360 460l250-250c28-28 57-23 83 3l186 185c26 26 30 55 2 83l-38 38c-44-40-169-129-189-110-5 5-3 10 0 13l14 15c39 43 86 104 92 166l-197 197c-23 23-58 23-77-4-38-54-37-143-126-250-25-30-29-57 0-86z" />
<glyph glyph-name="paint-brush" horiz-adv-x="1000" unicode="&#x13b79;" d="M196 427l24 24c27 27 58 28 87 2l4-4 297-297c28-29 30-60 6-87l-4-4-24-24c-26-27-58-28-87-2l-4 4-104 105c-25-43-62-136-97-170-44-45-106-43-155 6-49 48-52 111-7 155 33 33 117 67 163 92l8 5-105 104c-28 29-30 60-6 87l4 4 24 24-24-24z" />
<glyph glyph-name="pause" horiz-adv-x="1000" unicode="&#x13b7a;" d="M400 550c28 0 50-22 50-50l0 0 0-300c0-27-22-50-50-50-27 0-50 23-50 50l0 0 0 300c0 28 23 50 50 50z m200 0c28 0 50-22 50-50l0 0 0-300c0-27-22-50-50-50-27 0-50 23-50 50l0 0 0 300c0 28 23 50 50 50z" />
<glyph glyph-name="pause" horiz-adv-x="1000" unicode="&#x13b7b;" d="M500 850c276 0 500-224 500-500 0-276-224-500-500-500-276 0-500 224-500 500 0 276 224 500 500 500z m0-100c-220 0-400-179-400-400 0-220 180-400 400-400 221 0 400 180 400 400 0 221-179 400-400 400z" />
<glyph glyph-name="pencil" horiz-adv-x="1000" unicode="&#x13b7c;" d="M913 665l-98 98c-27 27-71 27-98 0l-100-100 196-196 100 100c27 27 27 71 0 98z" />
<glyph glyph-name="pencil" horiz-adv-x="1000" unicode="&#x13b7d;" d="M568 614l-468-468 0-196 196 0 468 468z" />
<glyph glyph-name="phone" horiz-adv-x="1000" unicode="&#x13b7e;" d="M801 214l-106 12c-25 3-50-6-68-23l-77-77c-117 60-214 156-274 274l77 78c18 17 27 42 24 68l-12 105c-5 42-41 74-83 74l-72 0c-47 0-87-40-84-87 22-355 307-640 662-662 47-3 87 37 87 84l0 72c0 42-32 77-74 82z" />
<glyph glyph-name="phone" horiz-adv-x="1000" unicode="&#x13b7f;" d="M542 723l5 0c170-22 304-155 325-326 3-23-13-44-36-47-2 0-3 0-5 0-21 0-39 15-41 37-17 132-121 236-253 253-23 2-39 23-37 46 3 23 24 39 47 37z m-40-201c6 22 28 36 51 30 72-19 130-76 149-150 6-22-8-45-30-51-3-1-7-1-10-1-19 0-36 13-41 31-11 44-46 79-89 90-23 6-36 28-30 51z" />
<glyph glyph-name="pictures" horiz-adv-x="1000" unicode="&#x13b80;" d="M28 817l781 0c7 0 15-3 20-9 4-4 7-10 8-16l0-4 0-105-58 0 0 77-722 0 0-483 78 0 0-188-107 0c-7 0-14 3-20 8-4 4-7 10-8 16l0 4 0 671c0 8 3 15 8 20 5 5 11 8 17 8l3 1 781 0-781 0z" />
<glyph glyph-name="pictures" horiz-adv-x="1000" unicode="&#x13b81;" d="M189 657l779 0c8 0 15-3 20-8 4-4 7-10 7-16l1-676c0-7-3-15-9-20-4-4-10-7-16-8l-4 0-779 0c-12 0-22 7-26 17l-1 4 0 681c1 14 11 24 24 26l4 0 779 0-779 0z m750-57l-721 0 0-484 92 0 105 227c2 5 8 9 14 9 4 0 9-1 13-5l1-2 76-110c3-4 7-6 12-7 3 0 7 1 10 3l2 1 49 41c5 5 13 5 19 1l3-2 87-87c3-3 8-5 12-5 4 1 7 2 10 4l2 2 22 27c4 3 8 5 13 5 4 0 8-2 11-4l2-2 74-96 92 0 0 484z m-205-136c29 0 53-23 53-52 0-29-24-53-53-53-29 0-52 24-52 53 0 29 23 52 52 52z" />
<glyph glyph-name="pie" horiz-adv-x="1000" unicode="&#x13b82;" d="M467 320l0 463c0 0-1 1-2 1-257 0-465-209-465-466 0-257 209-464 466-464 257 0 465 199 466 466l-465 0z" />
<glyph glyph-name="pie" horiz-adv-x="1000" unicode="&#x13b83;" d="M998 387c0 0 0-1 0-1 0 256-198 463-464 464l0-463 464 0 0 0z" />
<glyph glyph-name="pin" horiz-adv-x="1000" unicode="&#x13b84;" d="M443-67l475 475c15 15 3 29-2 34-39 39-111 36-190 2 0 0 0 0-1 0-98 72-197 144-296 216l14 14c16 16 16 42 0 59l-5 5c-16 16-43 16-59 0l-267-267c-16-16-16-42 0-59l6-5c16-16 42-16 58 0l10 10c72-97 144-195 217-292 1-1 1-2 2-4-32-77-34-146 2-186 5-5 19-19 36-2z" />
<glyph glyph-name="pin" horiz-adv-x="1000" unicode="&#x13b85;" d="M750 175c-25-25-50-50-75-75 20-17 40-33 60-49 42-36 85-72 128-107 15-13 32-14 45-1 13 13 13 31-1 46-49 59-99 118-149 177-3 3-5 6-8 9z" />
<glyph glyph-name="play-circle" horiz-adv-x="1000" unicode="&#x13b86;" d="M440 155l234 175c13 10 13 30 0 40l-234 175c-16 13-40 1-40-20l0-350c0-20 24-32 40-20z" />
<glyph glyph-name="play-circle" horiz-adv-x="1000" unicode="&#x13b87;" d="M500 850c276 0 500-224 500-500 0-276-224-500-500-500-276 0-500 224-500 500 0 276 224 500 500 500z m0-100c-220 0-400-179-400-400 0-220 180-400 400-400 221 0 400 180 400 400 0 221-179 400-400 400z" />
<glyph glyph-name="plugins" horiz-adv-x="1000" unicode="&#x13b88;" d="M90 590c17 7 37 1 47-14l3-3 50-87-67-39-51 88c-5 9-7 21-3 32 3 10 11 19 21 23z m156 90c17 8 38 2 48-14l3-3 49-87-67-39-51 88c-5 9-7 21-3 32 3 10 11 19 21 23z" />
<glyph glyph-name="plugins" horiz-adv-x="1000" unicode="&#x13b89;" d="M445 562l53-93c51-85 34-195-39-261l47-81c14-26 39-45 68-51 30-7 60 0 84 18 42 34 52 93 24 139-25 43-32 94-20 141 13 48 44 89 86 114l104 62c20 9 44 1 54-18 11-19 5-43-13-55l-103-60c-50-30-66-94-37-144l0 0c26-44 33-97 20-146-13-49-46-91-91-115-92-46-203-10-252 80l-44 74c-94-30-197 10-246 96l-54 93c-2 4-4 9-4 14l352 204c4-3 8-6 11-11z" />
<glyph glyph-name="plus-circle" horiz-adv-x="1000" unicode="&#x13b8a;" d="M500 850c276 0 500-224 500-500 0-276-224-500-500-500-276 0-500 224-500 500 0 276 224 500 500 500z m0-100c-220 0-400-179-400-400 0-220 180-400 400-400 221 0 400 180 400 400 0 221-179 400-400 400z" />
<glyph glyph-name="plus-circle" horiz-adv-x="1000" unicode="&#x13b8b;" d="M517 583c18 0 33-15 33-33l0-183 183 0c19 0 34-15 34-34 0-18-15-33-34-33l-183 0 0-183c0-19-15-34-33-34-19 0-34 15-34 34l0 183-183 0c-18 0-33 15-33 33 0 19 15 34 33 34l183 0 0 183c0 18 15 33 34 33z" />
<glyph glyph-name="previous" horiz-adv-x="1000" unicode="&#x13b8c;" d="M166 750c37 0 67-30 67-66l0-665c0-36-30-66-67-66-36 0-66 30-66 66l0 665c0 36 30 66 66 66z" />
<glyph glyph-name="previous" horiz-adv-x="1000" unicode="&#x13b8d;" d="M410 297l383-271c44-31 105 1 105 55l0 541c0 54-60 85-105 54l-383-270c-38-27-38-83 0-109z" />
<glyph glyph-name="print" horiz-adv-x="1000" unicode="&#x13b8e;" d="M708 725l-416 0c-23 0-42-19-42-42l0-83c0-23 19-42 42-42l416 0c23 0 42 19 42 42l0 83c0 23-19 42-42 42z" />
<glyph glyph-name="print" horiz-adv-x="1000" unicode="&#x13b8f;" d="M208 517l584 0c67 0 121-53 125-119l0-6 0-167c0-44-35-80-78-83l-6 0-83 0 0-84c0-44-35-80-78-83l-5 0-334 0c-44 0-80 35-83 78l0 5 0 84-83 0c-44 0-81 34-83 78l-1 5 0 167c0 67 53 121 119 125l6 0 584 0z m459-250l-334 0 0-167c0-21 17-39 38-41l4-1 250 0c22 0 39 17 42 38l0 4 0 167z m125 166c-23 0-42-18-42-41 0-23 19-42 42-42 23 0 41 19 41 42 0 23-18 41-41 41z" />
<glyph glyph-name="privacy" horiz-adv-x="1000" unicode="&#x13b90;" d="M801 356c32-40 77-61 133-63 37-1 66-31 66-68l0-72c0-72-24-139-69-189-13-15-27-29-43-43-42-34-81-54-108-65l-5-2c-6-2-15-4-24-4l-5 0c-4 0-11 1-18 3l-4 2c-26 9-68 29-111 66-16 13-30 27-44 42-45 51-69 118-69 190l0 72c0 37 28 67 65 68 57 2 99 22 130 63 26 32 81 32 106 0z" />
<glyph glyph-name="privacy" horiz-adv-x="1000" unicode="&#x13b91;" d="M429 444c82 0 159-23 227-62-21-26-47-39-84-41l-8-1c-62-2-111-52-111-115l0-72c0-83 29-161 82-222 18-19 32-33 48-46 16-14 32-26 47-35l-466 0c-90 0-163 72-164 160l0 5c0 236 193 429 429 429z m8 406c104 0 188-84 188-187 0-104-84-188-188-188-103 0-187 84-187 188 0 103 84 187 187 187z" />
<glyph glyph-name="publish" horiz-adv-x="1000" unicode="&#x13b92;" d="M338 52l212-36-127-149c-27-32-81-17-85 25l0 5 0 155z" />
<glyph glyph-name="publish" horiz-adv-x="1000" unicode="&#x13b93;" d="M1000 802l-1-5-140-814c-3-14-11-25-24-32-11-6-23-7-35-4l-6 2-243 98-207 36 470 553c9 10-4 23-14 17l-2-1-562-477-207 84c-17 6-28 22-29 39-1 15 7 30 19 39l5 3 906 504c32 18 72-6 70-42z" />
<glyph glyph-name="purge" horiz-adv-x="1000" unicode="&#x13b94;" d="M661 717c17 0 30-13 30-30l0-72 157 0c6 0 10-4 10-10l0-109c0-6-4-10-10-10l-705 0c-6 0-10 4-10 10l0 109c0 6 4 10 10 10l165 0 0 72c0 17 13 30 30 30l323 0z" />
<glyph glyph-name="purge" horiz-adv-x="1000" unicode="&#x13b95;" d="M737-109l-474 0c-21 0-40 17-40 39l0 516 545 0 0-516c0-22-10-39-31-39z m-217 466l-49 0 0-298 49 0 0 298z m119 0l-39 0 0-298 39 0 0 298z m-248 0l-49 0 0-298 49 0 0 298z" />
<glyph glyph-name="question-sign-circle" horiz-adv-x="1000" unicode="&#x13b96;" d="M550 150l0-100-100 0 0 100 100 0z m-19 498c87-13 155-86 167-173 14-96-51-133-99-178-6-6-12-11-17-17l-1-2 0 0c-5-6-10-13-14-20l-3-4 0 0c-7-13-12-28-14-45l0-9-100 0c0 25 4 46 10 63l1 3 2 4c2 6 5 12 8 17l7 12 0 0c41 62 117 77 122 144 4 48-31 95-78 105-52 11-99-20-115-64-7-18-21-32-39-34l-5 0-10 0c-31 0-53 30-44 59 28 91 119 154 222 139z" />
<glyph glyph-name="question-sign-circle" horiz-adv-x="1000" unicode="&#x13b97;" d="M500 850c276 0 500-224 500-500 0-276-224-500-500-500-276 0-500 224-500 500 0 276 224 500 500 500z m0-100c-220 0-400-179-400-400 0-220 180-400 400-400 221 0 400 180 400 400 0 221-179 400-400 400z" />
<glyph glyph-name="quote-left" horiz-adv-x="1000" unicode="&#x13b98;" d="M1000 468c0-121-76-209-187-209-51 0-96 13-123 46l-17 0c24-72 96-131 187-152 31-7 45-24 45-49 0-30-25-48-56-48-117 0-304 140-304 363 0 148 90 264 235 264 127 0 220-90 220-215z" />
<glyph glyph-name="quote-left" horiz-adv-x="1000" unicode="&#x13b99;" d="M456 468c0 125-93 215-220 215-145 0-235-116-235-264 0-223 187-363 304-363 31 0 56 18 56 48 0 25-16 42-46 49-90 21-162 80-188 152l19 0c27-33 71-46 121-46 113 0 189 88 189 209z" />
<glyph glyph-name="quote-right" horiz-adv-x="1000" unicode="&#x13b9a;" d="M544 251c0-126 94-216 220-216 145 0 235 116 235 264 0 223-187 363-304 363-31 0-55-18-55-48 0-25 15-42 45-49 90-20 162-80 188-152l-19 0c-27 33-71 46-121 46-113 0-189-88-189-208z" />
<glyph glyph-name="quote-right" horiz-adv-x="1000" unicode="&#x13b9b;" d="M0 251c0 120 76 208 188 208 50 0 95-13 122-46l17 0c-24 72-96 132-187 152-30 7-45 24-45 49 0 30 25 48 56 48 117 0 304-140 304-363 0-148-90-264-235-264-127 0-220 90-220 216z" />
<glyph glyph-name="radio-checked" horiz-adv-x="1000" unicode="&#x13b9c;" d="M500-150c276 0 500 224 500 500 0 276-224 500-500 500-276 0-500-224-500-500 0-276 224-500 500-500z m0 111c-215 0-389 174-389 389 0 215 174 389 389 389 215 0 389-174 389-389 0-215-174-389-389-389z" />
<glyph glyph-name="radio-checked" horiz-adv-x="1000" unicode="&#x13b9d;" d="M278 350c0 123 99 222 222 222 123 0 222-99 222-222 0-123-99-222-222-222-123 0-222 99-222 222z" />
<glyph glyph-name="rebuild" horiz-adv-x="1000" unicode="&#x13b9e;" d="M853 362c0 91-34 182-103 251-109 109-271 132-402 69 88 9 178-21 246-88 63-64 93-149 89-232l-155 0 236-236 236 236-147 0z" />
<glyph glyph-name="rebuild" horiz-adv-x="1000" unicode="&#x13b9f;" d="M406 130c-63 64-93 149-88 232l154 0-236 236-236-236 147 0c0-91 34-182 103-252 109-108 271-131 402-68-87-9-178 21-246 88z" />
<glyph glyph-name="repeat" horiz-adv-x="1000" unicode="&#x13ba0;" d="M33 408c0-33 27-60 61-60 33 0 60 27 60 60l0 25c0 67 45 109 117 109l294 0 0-83c0-28 18-46 45-46 13 0 24 5 32 12l167 140c22 18 22 48 0 66l-167 141c-8 7-19 11-32 11-27 0-45-17-45-45l0-78-288 0c-151 0-244-81-244-212l0-40z" />
<glyph glyph-name="repeat" horiz-adv-x="1000" unicode="&#x13ba1;" d="M433 237l0-83 294 0c72 0 118 42 118 109l0 24c0 34 26 61 60 61 33 0 60-27 60-61l0-39c0-131-93-212-244-212l-288 0 0-78c0-28-18-46-45-46-13 0-24 5-32 12l-167 141c-22 18-22 48 0 65l167 141c8 7 19 12 32 12 27 0 45-18 45-46z" />
<glyph glyph-name="reply" horiz-adv-x="1033.3" unicode="&#x13ba2;" d="M501 583l3 0c19-2 35-16 37-37l1-5 0-66c291-42 416-250 458-458-102 142-243 209-444 212l-14 0 0-70c0-23-18-39-38-41l-3-1c-9 0-19 3-27 9l-4 4-191 191c-15 15-16 39-3 55l3 4 191 191c8 7 17 11 26 12l5 0z" />
<glyph glyph-name="reply" horiz-adv-x="1000" unicode="&#x13ba3;" d="M247 579l4 0c21-2 41-19 41-44 0-10-4-20-10-27l-3-4-154-154 154-154c8-8 13-19 13-31 0-25-20-42-41-44l-4 0c-9 0-19 3-27 10l-4 3-186 187c-16 15-17 39-3 55l3 4 186 186c8 8 17 12 26 13l5 0z" />
<glyph glyph-name="save" horiz-adv-x="1000" unicode="&#x13ba4;" d="M356 661l0-279c0-47 20-70 65-72l6 0 275 0 0-306c0-77-37-116-110-119l-7 0-367 0c-76 0-115 37-118 112l0 7 0 537c0 77 37 117 110 119l8 1 138 0z m51-21c13-3 26-11 39-24l205-208c17-17 27-31 31-46l-255 0c-13 0-20 6-20 19l0 259z" />
<glyph glyph-name="save" horiz-adv-x="1000" unicode="&#x13ba5;" d="M607 850l0-228c0-38 20-60 56-62l6 0 225 0 0-366c0-77-37-117-110-119l-8 0-22 0 0 225c0 49-14 91-52 131l-6 7-216 216c-40 41-81 56-130 58l-9 0-49 0 0 19c0 77 37 116 110 119l8 0 197 0z m48-221l-1 203c10-2 20-8 31-19l5-5 168-171c8-9 14-17 16-25l2-5-200 0c-14 0-20 6-21 19l0 3-1 203 1-203z" />
<glyph glyph-name="scissors" horiz-adv-x="1000" unicode="&#x13ba6;" d="M862 194c78-79 78-206 0-285-58-57-144-74-220-43-75 31-124 104-124 186 0 81 49 155 124 186 76 31 162 14 220-44z m-187-36c-43-18-71-60-71-107 0-47 28-89 71-107 41-17 88-9 121 21l5 4 0 1c45 45 45 118 0 163-33 33-83 43-126 25z m-458 675l242-347c4-5 4-12 0-17l-88-126c-4-6-10-12-16-17-3-2-7-3-11-3-4 1-8 3-10 7-3 4-6 9-9 14l-28 54c-48 93-109 217-135 292-14 40-20 82-17 124 1 16 13 30 29 35 16 4 34-2 43-16z" />
<glyph glyph-name="scissors" horiz-adv-x="1000" unicode="&#x13ba7;" d="M802 849c21 0 39-16 40-37 3-42-3-84-17-123-31-91-115-254-163-346-22-42-60-72-104-86l-9-2-114-29c-5-2-10-5-12-10-2-4-3-9-2-13l2-4 26-61c28-57 26-123-3-180-29-56-83-95-146-105-11-2-22-3-33-3-104 0-191 81-200 185-8 102 61 193 160 213l8 2 95 16c30 4 56 20 74 43l5 6 8 12c3 4 7 6 11 6 3 0 6-2 8-4l2-2 7-10c10-11 27-13 40-4 12 7 16 22 12 35l-2 3-20 30c-5 8-6 17-2 25l2 3 294 423c8 11 20 17 33 17z m-453-715c-33 33-82 43-126 25-43-18-71-60-71-107 0-47 28-89 71-107 44-18 93-8 126 25 22 21 35 51 35 82 0 31-13 60-35 82z" />
<glyph glyph-name="screen" horiz-adv-x="1000" unicode="&#x13ba8;" d="M63 850l875 0c32 0 59-25 62-58l0-4 0-657c0-33-25-60-58-62l-4 0-875 0c-33 0-60 25-63 57l0 5 0 657c0 32 25 59 58 62l5 0 875 0-875 0z m812-62l-750 0c-33 0-60-26-62-58l0-5 0-437c0-33 25-60 57-63l5 0 750 0c33 0 60 25 62 58l1 5 0 437c0 33-26 60-58 62l-5 1z" />
<glyph glyph-name="screen" horiz-adv-x="1000" unicode="&#x13ba9;" d="M565 50c17 0 31-14 31-31l0-32c0-17 12-39 25-50l75-56c14-10 11-19-6-19l-375 0c-17 0-20 9-6 19l75 56c14 11 25 33 25 50l0 32c0 17 14 31 31 31l125 0z" />
<glyph glyph-name="screwdriver" horiz-adv-x="1000" unicode="&#x13baa;" d="M530 145l131 149c19-4 37-6 56-6 4 0 8 1 12 1l6 1 180-180c23-23 24-59 4-83l-4-5-87-87c-23-23-59-24-84-4l-4 4-210 210 131 149-131-149z m-454 578l51 51c10 10 24 12 36 6l4-2 133-89c15-10 18-30 7-44l-3-3-15-15 134-135-70-61-129 130-16-15c-13-13-33-12-45 1l-2 3-89 134c-8 11-7 25 1 36l3 3 51 51-51-51z" />
<glyph glyph-name="screwdriver" horiz-adv-x="1000" unicode="&#x13bab;" d="M717 350c119 0 216 97 216 217 0 19-3 37-8 55l-134-134c-24-24-63-24-87 0l-66 66c-24 24-24 63 0 87l134 134c-18 5-36 8-55 8-120 0-217-97-217-216 0-27 6-53 15-77l-412-362c-48-48-48-127 0-175 48-48 127-48 175 0l362 412c24-9 50-15 77-15z m-526-371c-35 0-62 27-62 62 0 34 27 61 62 61 34 0 61-27 61-61 0-35-27-62-61-62z" />
<glyph glyph-name="share-alt" horiz-adv-x="1000" unicode="&#x13bac;" d="M379 308l274-159c-16-18-29-39-38-62l-3-10-274 160c17 18 30 39 38 62l3 9z m-41 174l273 159c7-24 19-45 35-64l6-7-273-159c-7 23-19 45-34 63l-7 8 273 159-273-159z" />
<glyph glyph-name="share-alt" horiz-adv-x="1000" unicode="&#x13bad;" d="M781 169c72-1 132-55 140-126 8-72-37-138-107-155-11-3-22-5-33-5-4 0-8 1-12 1l-7 1-7 0c-23 5-45 15-63 30l-13 12c-16 16-29 36-36 57l-2 9-2 3c-1 3-1 6-1 9 0 6 0 12 0 17 0 2 0 3 0 4 0 24 6 47 18 68 25 46 73 75 125 75z m-571 333c60 0 114-39 133-96 19-55 3-116-40-154l-14-11 0 0-4-3-7-4c-4-2-9-6-13-8l-4 0-4 0c-15-6-31-9-47-9-79 0-143 64-143 143 0 78 64 142 143 142z m607 330c64-16 109-74 108-140-1-66-47-123-111-138-11-2-22-4-33-4-4 0-8 1-12 2l-7 1-7 0c-23 5-44 15-63 30l-6 6-7 5c-16 16-29 36-36 57l-2 9-2 3c-1 3-1 6-1 9 0 6 0 11 0 17 0 1 0 3 0 4 0 24 6 47 18 68 31 58 97 87 161 71z" />
<glyph glyph-name="shield" horiz-adv-x="1000" unicode="&#x13bae;" d="M509 759l318-141 0-259-318 0 0-406c-169 52-294 219-318 406l318 0 0 400z" />
<glyph glyph-name="shield" horiz-adv-x="1000" unicode="&#x13baf;" d="M509 759l318-141 0-214c1-203-126-384-318-451-191 67-319 248-318 451l0 214 318 141m0 91c-13 0-25-3-37-8l-318-141c-33-15-54-47-54-83l0-214c0-252 175-488 409-545 235 57 409 293 409 545l0 214c0 36-21 68-54 83l-318 141c-12 5-24 8-37 8z" />
<glyph glyph-name="shuffle" horiz-adv-x="1000" unicode="&#x13bb0;" d="M490 326l12-22c3-7 6-13 9-18 5-10 13-22 22-36 10-13 19-23 29-31 9-8 21-14 35-20 12-4 24-7 37-7l8-1 143 0 0 107c0 6 2 10 5 13 4 4 8 5 13 5 4 0 7-1 11-3l2-2 178-178c4-4 5-8 5-13 0-4-1-8-3-11l-2-2-178-178c-3-4-8-5-13-5-5 0-9 1-12 5-3 3-5 6-6 10l0 2 0 108-39-1 0 0-53 0c-11 0-24 0-41 0l-16 1c-9 1-17 1-24 2l-12 2c-7 1-15 2-23 4-14 3-26 6-35 10l-12 6c-7 3-13 6-21 10-12 7-23 14-33 22-9 9-20 19-30 30-11 12-22 25-32 39 22 35 48 85 76 152z m-472 365l125 0c93 0 169-42 228-125-22-35-47-85-76-153l-8 16c-5 10-9 18-13 25-5 10-13 22-22 35-10 14-19 24-29 32-9 7-21 14-35 19-11 5-24 7-37 8l-8 0-125 0c-5 0-10 2-13 5-3 3-4 6-5 10l0 3 0 107c0 5 2 10 5 13 3 3 6 4 10 5l3 0 125 0-125 0z" />
<glyph glyph-name="shuffle" horiz-adv-x="1000" unicode="&#x13bb1;" d="M458 342c18 40 32 72 44 95 9 17 17 32 25 43 8 12 17 24 28 35 12 11 24 19 39 25 14 5 31 8 48 8l143 0 0-107c0-5 2-9 5-12 4-4 8-6 13-6 5 0 10 2 13 5l178 179c4 3 5 7 5 13 0 5-1 9-5 12l-178 178c-4 4-9 6-13 6-5 0-9-2-13-5-3-3-5-8-5-13l0-107-143 0c-25 0-49-3-71-9-22-6-42-14-59-24-18-9-34-22-51-38-16-16-29-31-41-46-11-15-23-34-35-56-13-22-23-42-31-58-7-17-16-38-27-62-17-41-32-73-44-96-9-17-17-31-25-43-8-12-17-23-28-34-11-11-24-20-39-25-14-6-30-9-48-9l-125 0c-5 0-10-1-13-5-3-3-5-7-5-12l0-108c0-5 2-9 5-12 3-4 8-5 13-5l125 0c25 0 49 3 71 9 23 6 42 14 60 23 17 10 34 22 50 38 16 16 30 32 41 47 11 15 23 33 36 55 12 23 22 42 30 59 7 17 17 37 27 62z" />
<glyph glyph-name="sign-in" horiz-adv-x="1000" unicode="&#x13bb2;" d="M633 454l0 150-300-262 300-263 0 150 300 0 0 225z" />
<glyph glyph-name="sign-in" horiz-adv-x="1000" unicode="&#x13bb3;" d="M408 717c67 0 130-18 185-49l-61-53c-38 17-80 27-124 27-165 0-300-135-300-300 0-166 135-300 300-300 44 0 86 9 124 27l61-54c-55-31-118-48-185-48-207 0-375 168-375 375 0 207 168 375 375 375z" />
<glyph glyph-name="sign-out" horiz-adv-x="1000" unicode="&#x13bb4;" d="M367 454l0 150 300-262-300-263 0 150-300 0 0 225z" />
<glyph glyph-name="sign-out" horiz-adv-x="1000" unicode="&#x13bb5;" d="M592 717c-67 0-130-18-184-49l8-7 52-46c38 17 80 27 124 27 165 0 300-135 300-300 0-166-135-300-300-300-44 0-86 9-124 27l-52-46-8-8c54-31 117-48 184-48 207 0 375 168 375 375 0 207-168 375-375 375z" />
<glyph glyph-name="smart-search" horiz-adv-x="1000" unicode="&#x13bb6;" d="M306 849l358 0 0-126c0-43 35-79 79-79l137 0 0-489c0-43-36-78-79-78l-318 0c12 67-7 139-59 191-54 53-128 72-197 58l0 445c0 43 36 78 79 78z" />
<glyph glyph-name="smart-search" horiz-adv-x="1000" unicode="&#x13bb7;" d="M394 238c54-55 65-136 31-201l115-115c32-31-16-79-47-48l-109 110c-68-58-171-55-235 9-67 68-67 177 0 245 68 67 177 67 245 0z m-39-42l-3-2-113-102-46 51c-22 24-59-8-41-33l2-2 64-70c9-10 25-11 35-3l134 121c23 21-5 56-30 42l-2-2 0 0z m347 653l178-169-113 0c-36 0-65 30-65 65l0 104z" />
<glyph glyph-name="smiley-neutral" horiz-adv-x="1000" unicode="&#x13bb8;" d="M500 767c-230 0-417-187-417-417 0-230 187-417 417-417 230 0 417 187 417 417 0 230-187 417-417 417z m0-750c-184 0-333 149-333 333 0 184 149 333 333 333 184 0 333-149 333-333 0-184-149-333-333-333z" />
<glyph glyph-name="smiley-neutral" horiz-adv-x="1000" unicode="&#x13bb9;" d="M667 217c18 0 33-15 33-34 0-18-15-33-33-33l-334 0c-18 0-33 15-33 33 0 19 15 34 33 34l334 0z m-21 300c34 0 62-28 62-63 0-34-28-62-62-62-35 0-63 28-63 62 0 35 28 63 63 63z m-292 0c35 0 63-28 63-63 0-34-28-62-63-62-34 0-62 28-62 62 0 35 28 63 62 63z" />
<glyph glyph-name="smiley-sad" horiz-adv-x="1000" unicode="&#x13bba;" d="M500 767c-230 0-417-187-417-417 0-230 187-417 417-417 230 0 417 187 417 417 0 230-187 417-417 417z m0-750c-184 0-333 149-333 333 0 184 149 333 333 333 184 0 333-149 333-333 0-184-149-333-333-333z" />
<glyph glyph-name="smiley-sad" horiz-adv-x="1000" unicode="&#x13bbb;" d="M500 288c85 0 158-47 198-115 7-13-1-29-15-31l-3 0-360 0c-15 0-26 17-18 31 40 68 113 115 198 115z m-64 217c11-11 12-29 3-41l-3-4-22-22 22-22c12-12 12-32 0-44-11-11-29-12-41-3l-3 3-22 22-22-22c-12-12-32-12-44 0-11 11-12 29-3 41l3 3 22 22-22 22c-12 13-12 33 0 45 11 11 29 12 41 2l3-2 22-22 22 22c12 12 32 12 44 0z m194-22l22 22c12 12 32 12 44 0 11-11 12-29 3-41l-3-4-22-22 22-22c12-12 12-32 0-44-11-11-29-12-41-3l-3 3-22 22-22-22c-12-12-32-12-44 0-11 11-12 29-3 41l3 3 22 22-22 22c-12 13-12 33 0 45 11 11 29 12 41 2l3-2 22-22 22 22-22-22z" />
<glyph glyph-name="smiley" horiz-adv-x="1000" unicode="&#x13bbc;" d="M320 267l360 0c16 0 26-18 18-32-40-68-113-114-198-114-85 0-158 46-198 114-7 13 1 29 15 31l3 1z m76 231l4-3 36-37c12-12 12-32 0-44-11-11-29-12-41-3l-3 3-22 22-22-22c-12-12-32-12-44 0-11 11-12 29-3 41l3 3 37 37c14 14 36 16 52 5l3-2 0 0z m168-40l37 37c15 15 39 16 55 3l4-3 36-37c12-12 12-32 0-44-11-11-29-12-41-3l-3 3-22 22-22-22c-12-12-32-12-44 0-11 11-12 29-2 41l2 3 37 37-37-37z" />
<glyph glyph-name="smiley" horiz-adv-x="1000" unicode="&#x13bbd;" d="M500 767c-230 0-417-187-417-417 0-230 187-417 417-417 230 0 417 187 417 417 0 230-187 417-417 417z m0-750c-184 0-333 149-333 333 0 184 149 333 333 333 184 0 333-149 333-333 0-184-149-333-333-333z" />
<glyph glyph-name="sourcetree" horiz-adv-x="1000" unicode="&#x13bd0;" d="M659 70l268 0c38 0 70-30 73-68l0-6 0-73c0-38-30-70-68-73l-5 0-268 0c-39 0-71 30-73 68l-1 5 0 73c0 39 30 71 68 73l6 1 268 0-268 0z m-500 122l0-74-49 0 0 74 49 0z m731 0l0-74-48 0 0 74 48 0z m-817 268l269 0c38 0 70-30 73-68l0-5 0-74c0-38-30-70-68-73l-5 0-269 0c-38 0-70 30-73 68l0 5 0 74c0 38 30 70 68 73l5 0z m171 305l0-49-37 0c-25 0-46-19-48-44l0-5 0-158-49 0 0 158c0 52 41 95 92 98l5 0 37 0z m549 0c52 0 94-41 97-92l0-6 0-158-48 0 0 158c0 25-20 46-45 49l-4 0-37 0 0 49 37 0z m-159 85c39 0 71-30 73-68l0-5 0-73c0-39-30-71-68-73l-5 0-268 0c-39 0-70 30-73 67l0 6 0 73c0 38 30 70 68 73l5 0 268 0z" />
<glyph glyph-name="sourcetree" horiz-adv-x="1000" unicode="&#x13bd1;" d="M73 70l269 0c38 0 70-30 73-68l0-6 0-73c0-38-30-70-68-73l-5 0-269 0c-38 0-70 30-73 68l0 5 0 73c0 39 30 71 68 73l5 1 269 0-269 0z m586 390l268 0c38 0 70-30 73-68l0-5 0-74c0-38-30-70-68-73l-5 0-268 0c-39 0-71 30-73 68l-1 5 0 74c0 38 30 70 68 73l6 0 268 0-268 0z" />
<glyph glyph-name="step-forward" horiz-adv-x="1000" unicode="&#x13bbe;" d="M166 657l4 0c9-1 17-3 25-8l6-3 369-261c34-24 35-74 4-101l-4-3-369-260c-10-7-20-10-31-11l-4-1c-32 0-63 24-66 59l0 5 0 520c0 39 32 65 66 64z" />
<glyph glyph-name="step-forward" horiz-adv-x="1000" unicode="&#x13bbf;" d="M803 717l5 0c31-3 56-28 59-59l0-5 0-639c0-35-29-64-64-64-34 0-61 26-64 59l0 5 0 639c0 33 26 61 59 64l5 0z" />
<glyph glyph-name="stop" horiz-adv-x="1000" unicode="&#x13bc0;" d="M367 550l266 0c37 0 67-30 67-67l0-266c0-37-30-67-67-67l-266 0c-37 0-67 30-67 67l0 266c0 37 30 67 67 67z" />
<glyph glyph-name="stop" horiz-adv-x="1000" unicode="&#x13bc1;" d="M500 850c276 0 500-224 500-500 0-276-224-500-500-500-276 0-500 224-500 500 0 276 224 500 500 500z m0-100c-220 0-400-179-400-400 0-220 180-400 400-400 221 0 400 180 400 400 0 221-179 400-400 400z" />
<glyph glyph-name="support" horiz-adv-x="1000" unicode="&#x13bc2;" d="M941 355c0 245-198 442-442 442-244 0-442-197-442-442 0-244 198-442 442-442 244 0 442 198 442 442z m-225 81c26 8 56 12 86 12 32 0 62-4 89-12 5-26 8-52 8-80 0-27-3-54-8-80-27-7-57-11-89-11-30 0-60 4-86 11 9 26 15 53 15 81 0 27-6 54-15 79z m-217-270c-104 0-189 85-189 189 0 105 85 190 189 190 104 0 189-85 189-190 0-104-85-189-189-189z m-400 189c0 27 3 53 7 78 29 9 61 14 96 14 29 0 56-3 80-10-9-25-15-52-15-82 0-29 6-57 16-82-24-6-51-9-80-9-35 0-67 5-96 13-5 26-8 52-8 78z m483 392c9-27 13-59 13-92 0-30-4-59-11-84-26 11-54 16-85 16-27 0-54-5-79-14-6 25-9 53-9 82 0 34 4 66 12 93 24 4 50 7 76 7 28 0 56-3 83-8z m-159-784c-8 27-12 59-12 92 0 30 3 57 9 82 24-8 51-13 79-13 29 0 59 5 85 16 7-26 11-55 11-85 0-32-4-64-13-91-27-6-55-9-83-9-26 0-51 2-76 8z" />
<glyph glyph-name="support" horiz-adv-x="1000" unicode="&#x13bc3;" d="M954 218c25-37 40-82 40-130 0-128-104-232-232-232-48 0-94 15-130 40 18 6 35 12 52 19 24-10 51-17 78-17 104 0 190 86 190 190 0 28-7 54-17 78 7 17 13 35 19 52z m-914 0c5-17 12-35 19-52-11-24-17-51-17-78 0-104 85-190 190-190 28 0 54 7 78 17 16-7 34-13 52-19-38-25-82-40-130-40-128 0-232 104-232 232 0 48 15 94 40 130z m722 632c128 0 232-104 232-232 0-48-15-92-40-130-6 18-12 36-19 53 10 24 17 50 17 77 0 105-86 190-190 190-27 0-54-6-78-17-17 7-34 14-52 19 38 25 82 40 130 40z m-530 0c48 0 93-15 130-40-18-5-36-12-52-19-25 11-51 17-78 17-105 0-190-85-190-190 0-28 6-53 17-77-7-17-14-35-19-53-25 38-40 82-40 130 0 128 104 232 232 232z" />
<glyph glyph-name="table" horiz-adv-x="1000" unicode="&#x13bc4;" d="M967 440l0-443c0-52-41-94-92-98l-7 0-147 0 0 541 246 0z m-688 0l0-541-147 0c-52 0-95 41-98 92l-1 6 0 443 246 0z m344-1l0-540-246 0 0 540 246 0z" />
<glyph glyph-name="table" horiz-adv-x="1000" unicode="&#x13bc5;" d="M132 783l736 0c52 0 95-40 99-91l0-7 0-147-934 0 0 147c0 52 41 95 92 98l7 0z" />
<glyph glyph-name="tag-double" horiz-adv-x="1000" unicode="&#x13bc6;" d="M699 717l205 0c17 0 32-7 44-19 11-11 17-24 18-38l1-6 0-205c0-17-5-36-13-57-8-18-17-33-27-44l-5-6-351-352c-13-12-27-18-45-18-15 0-28 5-39 14l-5 4-242 242c-10 11-16 23-18 38l0 6c0 15 5 29 14 40l4 5 352 351c12 12 29 23 50 32 18 7 34 11 50 12l7 1 205 0-205 0z m110-95c-17 0-32-6-44-18-12-12-18-27-18-45 0-17 6-32 18-44 12-12 27-18 44-18 18 0 33 6 45 18 12 12 18 27 18 44 0 18-6 33-18 45-12 12-27 18-45 18z" />
<glyph glyph-name="tag-double" horiz-adv-x="1000" unicode="&#x13bc7;" d="M511 717l110 0c-18 0-37-5-58-13-18-8-33-17-44-27l-6-5-351-351c-12-13-19-28-19-45 0-15 5-28 14-39l5-5 231-231c-10-10-19-18-26-22-8-5-18-7-29-7-15 0-29 5-40 14l-5 4-241 242c-13 12-19 27-19 44 0 15 5 29 14 40l5 5 351 351c12 12 29 23 50 32 18 7 35 11 50 12l8 1 110 0-110 0z" />
<glyph glyph-name="tags-squared" horiz-adv-x="1000" unicode="&#x13bc8;" d="M245 291l144-347-61 0c-44 0-80 34-83 78l0 5 0 264z m-84 93l0-376-56 23c-40 17-60 63-47 104l2 5 101 244z" />
<glyph glyph-name="tags-squared" horiz-adv-x="1000" unicode="&#x13bc9;" d="M636 735c30 0 59-17 73-45l2-6 207-499c17-40-1-86-40-106l-5-2-307-127c-11-4-21-6-32-6-31 0-60 17-74 45l-2 6-207 499c-5 11-7 22-6 33 0 30 17 58 45 73l6 2 307 127c11 5 22 6 33 6z m-308-166c-23 0-41-19-41-42 0-23 18-42 41-42 23 0 42 19 42 42 0 23-19 42-42 42z" />
<glyph glyph-name="tags-trio" horiz-adv-x="1000" unicode="&#x13bca;" d="M950 383l-387 386c-9 9-21 14-34 14l-264 0c-37 0-66-29-66-66l0-264c0-13 5-25 14-34l387-387c9-9 22-14 35-14 12 0 25 5 35 14l280 281c19 19 19 50 0 70z m-608 218c-29 0-52 23-52 51 0 29 23 52 52 52 29 0 52-23 52-52 0-28-23-51-52-51z" />
<glyph glyph-name="tags-trio" horiz-adv-x="1000" unicode="&#x13bcb;" d="M214 325l337-337-182-49c-25-7-51 7-60 31l-1 4-94 351z m-94 95l113-422-163 44c-25 7-40 31-36 56l1 5 85 317z" />
<glyph glyph-name="thumbs-down" horiz-adv-x="1000" unicode="&#x13bcc;" d="M375 10l0 178c0 9-4 18-10 24-6 6-15 10-24 10l-261 0c-23 0-46 10-61 28-15 19-22 43-18 66l56 313c15 80 84 138 165 138l458 0c8 0 14-3 19-8 5-5 8-12 8-19l0-427c0-7-3-14-8-19-5-5-12-8-19-8l-35 0c-23 0-44-15-51-38l-93-308c-2-8-9-16-17-20-8-4-18-5-26-1l-26 9c-34 13-57 45-57 82l0 0z" />
<glyph glyph-name="thumbs-down" horiz-adv-x="1000" unicode="&#x13bcd;" d="M913 282l-117 0c-13 1-24 11-26 24l0 3 0 431c0 13 9 24 22 26l4 1 117 0c46 0 84-36 87-82l0-5 0-311c0-46-36-84-81-86l-6-1-117 0 117 0z m-28 336c10 0 19 4 25 10 7 7 11 16 11 26 0 14-9 28-22 33-14 6-29 3-40-8-10-10-13-26-7-39 5-14 18-22 33-22z" />
<glyph glyph-name="thumbs-up" horiz-adv-x="1000" unicode="&#x13bce;" d="M625 690l0-178c0-9 4-17 10-24 6-6 15-10 24-10l261 0c24 0 46-10 61-28 16-18 22-42 18-66l-56-313c-15-80-84-138-165-138l-335 0 0 0-123 0c-7 0-14 3-19 8-5 5-8 12-8 19l0 427c0 7 3 14 8 19 5 5 12 8 19 8l35 0c23 0 44 15 51 38l93 308c3 8 9 16 17 20 8 4 18 5 26 1l26-9c35-13 58-45 57-82l0 0z" />
<glyph glyph-name="thumbs-up" horiz-adv-x="1000" unicode="&#x13bcf;" d="M87 418l117 0c13-1 24-11 26-24l0-3 0-431c0-13-9-24-22-26l-4-1-117 0c-46 0-84 36-87 82l0 5 0 311c0 46 36 84 81 86l6 1 117 0-117 0z m28-336c-9 0-19-3-25-10-7-7-11-16-11-26 0-14 9-28 22-33 14-6 29-3 40 8 10 10 13 26 8 39-6 14-19 22-34 22z" />
<glyph glyph-name="toggle-off" horiz-adv-x="1000" unicode="&#x13cf9;" d="M1000 350c0 93-70 167-158 167l-451 0c-85 0-154-70-157-159l-1-8c0-93 70-167 158-167l451 0c86 0 154 70 158 160l0 7z" />
<glyph glyph-name="toggle-off" horiz-adv-x="1000" unicode="&#x13cf8;" d="M267 617c147 0 266-120 266-267 0-147-119-267-266-267-148 0-267 120-267 267 0 147 119 267 267 267z" />
<glyph glyph-name="toggle-on" horiz-adv-x="1000" unicode="&#x13cfa;" d="M767 350c0 93-70 167-158 167l-451 0c-86 0-154-70-158-159l0-8c0-93 70-167 158-167l451 0c85 0 154 70 158 160l0 7z" />
<glyph glyph-name="toggle-on" horiz-adv-x="1000" unicode="&#x13cfb;" d="M733 617c148 0 267-120 267-267 0-147-119-267-267-267-147 0-266 120-266 267 0 147 119 267 266 267z" />
<glyph glyph-name="unlock" horiz-adv-x="1000" unicode="&#x13bd2;" d="M684 360c31 0 56-25 56-55l0-399c0-15-6-29-16-40-11-10-25-16-40-16l-621 0c-14 0-29 6-39 16-11 11-16 25-16 40l0 399c0 30 25 55 55 55l621 0z m-301-177c-46 0-83-37-83-83 0-46 37-83 83-83 46 0 84 37 84 83 0 46-38 83-84 83z" />
<glyph glyph-name="unlock" horiz-adv-x="1000" unicode="&#x13bd3;" d="M571 426c0-9-8-16-17-16l-71 0c-9 0-16 7-16 16l0 157c-2 93 46 180 127 227 80 47 179 47 259 0 81-47 129-134 127-227l0-157c0-9-7-16-16-16l-71 0c-9 0-16 7-16 16l0 156c1 56-27 108-75 136-48 29-108 29-156 1-48-28-77-80-75-136l0-157z" />
<glyph glyph-name="unpublish" horiz-adv-x="1000" unicode="&#x13cfe;" d="M497 831l2-5 380-923c7-18 0-39-16-48l-5-2-4-2c-17-4-35 3-43 18l-2 5-41 99c-4 0-7 1-11 2l-5 2-210 88-178 33 234 288-26 62-301-268-179 76c-15 6-24 20-25 36-1 14 5 27 16 35l5 3 430 250-89 217c-8 18 0 39 16 48l4 2 5 2c17 4 34-3 43-18z m439-78l0-5-99-604-144 353 84 105c8 9-3 21-12 16l-2-2-87-78-44 109 244 143c26 16 59-3 60-33l0-4z" />
<glyph glyph-name="unpublish" horiz-adv-x="1000" unicode="&#x13cff;" d="M371 57l174-32-104-128c-22-27-66-14-70 21l0 5 0 134z" />
<glyph glyph-name="user-notes" horiz-adv-x="1000" unicode="&#x13bd7;" d="M811 697l4 0c13 0 25-9 29-22l1-3 113-625c3-17-7-33-23-38l-4-1-624-112c-1 0-3 0-4 0l-4 0c-14 1-26 10-30 23l-1 4-18 100 528 0c17 0 31 13 33 29l0 4 0 641 4 0-4 0z" />
<glyph glyph-name="user-notes" horiz-adv-x="1000" unicode="&#x13bd8;" d="M57 86c-18 0-33 15-33 33l0 648c0 18 15 33 33 33l648 0c18 0 33-15 33-33l0-648c0-17-13-31-29-33l-4 0-648 0z" />
<glyph glyph-name="user" horiz-adv-x="1000" unicode="&#x13d13;" d="M635 250c82 0 154-59 170-136-72-91-181-149-306-149-123 0-235 58-304 149 16 77 85 136 168 136l272 0z m-136 381c93 0 168-75 168-168 0-92-75-168-168-168-93 0-168 76-168 168 0 93 75 168 168 168z" />
<glyph glyph-name="user" horiz-adv-x="1000" unicode="&#x13d06;" d="M499 850c277 0 501-224 501-499 0-277-224-501-501-501-275 0-499 224-499 501 0 275 224 499 499 499z m0-67c-238 0-432-194-432-432 0-240 194-432 432-432 240 0 432 192 432 432 0 238-192 432-432 432z" />
<glyph glyph-name="users" horiz-adv-x="1000" unicode="&#x13bd9;" d="M241 311l281 0c77 0 137-57 140-133l1-8 0-304-563 0 0 304c0 78 57 137 133 141l8 0 281 0-281 0z m140 352c80 0 141-61 141-141 0-80-61-141-141-141-79 0-140 61-140 141 0 80 61 141 140 141z" />
<glyph glyph-name="users" horiz-adv-x="1000" unicode="&#x13bda;" d="M569 498l140 0c78 0 137-57 141-133l0-7 0-455-130 0 0 54c2 218 11 395-144 401l-7 0-94 0c49 27 81 74 92 131l2 9 140 0-140 0z m0 352c79 0 140-61 140-141 0-77-57-136-133-140l-7 0-5 0c-18 63-66 113-128 133l-8 3 0 4c0 80 61 141 141 141z" />
<glyph glyph-name="vcard" horiz-adv-x="1000" unicode="&#x13bdb;" d="M967 717l-834 0c-18 0-33-15-33-34l0-33 767 0c37 0 66-30 66-67l0-533 34 0c18 0 33 15 33 33l0 600c0 19-15 34-33 34z" />
<glyph glyph-name="vcard" horiz-adv-x="1000" unicode="&#x13bdc;" d="M867 617l-834 0c-18 0-33-15-33-34l0-600c0-18 15-33 33-33l834 0c18 0 33 15 33 33l0 600c0 19-15 34-33 34z m-600-100c55 0 100-45 100-100 0-56-45-100-100-100-56 0-100 44-100 100 0 55 44 100 100 100z m166-434c0-18-15-33-33-33l-267 0c-18 0-33 15-33 33l0 67c0 74 60 133 133 133l67 0c74 0 133-59 133-133l0-67z m267 134l-200 0c-18 0-33 15-33 33 0 18 15 33 33 33l200 0c18 0 33-15 33-33 0-18-15-33-33-33z m67 100l-267 0c-18 0-33 15-33 33 0 18 15 33 33 33l267 0c18 0 33-15 33-33 0-18-15-33-33-33z" />
</font>
</defs>
</svg>
